Loading...
Error

Скачать Чародей 2: Страна Великого Дракона / Spellbinder: Land of the Dragon Lord (сезон 02) (Ноэль Прайс) [1995, фантастика, фэнтези, приключения, семейный, DVDRip-AVC] [MVO]+[Engl] торрент без регистрации

 
Статистика раздачи
Размер:  12,45 GB   |    Скачан:  115 раз

Полного источника не было: 29 минут

 
Автор Сообщение

МихаНЕзатор

[] 

Информация о Сериале
Название: Чародей: Страна Великого Дракона
Оригинальное название: Spellbinder: Land of the Dragon Lord
Год выхода: 1997
Жанр: фантастика, фэнтези, приключения, семейный
Режиссер: Ноэль Прайс

В ролях: Лорен Хьюитт, Райан Квантен, Леонард Фанг, Энтони Вон, Хезер Митчелл, Ми Янг, Ленор Смит, Питер О’Брайэн, Ху Ксин, Джиу Джеилан

Описание: Кэти Морган — талантливая и одарённая богатым воображением 14-летняя девочка проводила летние каникулы вместе со своими родителями, Вики и Карлом, и братом Джошем отдыхая на природе вдали от крупных городов и шумных автомагистралей.

Однажды, гуляя по окрестностям, Кэти нашла таинственный корабль, изобретённый Меком — учёным из параллельного мира, называемого Страной Великого Дракона. Случайно девушка перемещается в мир чародеев, где в заточении находится чародейка Ашка — безжалостный и властолюбивый воин — обманом завлекшая Кэти в Страну Великого Дракона — мир будущего, где компьютер был изобретен четыреста лет назад и над всеми господствует избалованный десятилетний мальчишка-император.

Когда Ашка предпринимает попытку завладеть этим миром, Кэти и Мек совершают путешествие во времени, пересекая при этом границы множества опасных, но увлекательных параллельных миров, чтобы спасти семью Кэти и империю Дракона…



Страна: Польша, Австралия, Китай
Продолжительность: 26x ~ 25 мин
Перевод: Профессиональный (многоголосый, закадровый) - cтудия Нота + Оригинал

Файл
Формат: MKV
Качество: DVDRip-AVC
Видео: H.264, ~702x576@748x576 (~4:3, anamorphic), 25 fps, 2466 kbps avg, 0.238 bits/pixel
Аудио №1: AC3, 2 ch, 48 KHz, 256 Kbps [русский]
Аудио №2: AC3, 2 ch, 48 KHz, 192 Kbps [английский]

АНОНСЫ ПОПУЛЯРНЫХ РАЗДАЧ
General
Unique ID : 150581221631787983994959016397778613443 (0x7148E36CE44D9B2B90FF0DA0010674C3)
Complete name : Spellbinder_s02e01.AVC.mkv
Format : Matroska
Format version : Version 2
File size : 502 MiB
Duration : 24mn 4s
Overall bit rate : 2 915 Kbps
Movie name : The Trans-Dimensional Bamboo Boat
Encoded date : UTC 2012-07-29 13:27:47
Writing application : mkvmerge v5.7.0 ('The Whirlwind') built on Jul 8 2012 19:12:28
Writing library : libebml v1.2.2 + libmatroska v1.3.0

Video
ID : 1
Format : AVC
Format/Info : Advanced Video Codec
Format profile : High@L3.1
Format settings, CABAC : Yes
Format settings, ReFrames : 8 frames
Muxing mode : Header stripping
Codec ID : V_MPEG4/ISO/AVC
Duration : 24mn 4s
Bit rate : 2 409 Kbps
Width : 702 pixels
Height : 576 pixels
Display aspect ratio : 4:3
Frame rate : 25.000 fps
Color space : YUV
Chroma subsampling : 4:2:0
Bit depth : 8 bits
Scan type : Progressive
Bits/(Pixel*Frame) : 0.238
Stream size : 415 MiB (83%)
Writing library : x264 core 125 r2200 999b753
Encoding settings : cabac=1 / ref=8 / deblock=1:-1:-1 / analyse=0x3:0x133 / me=umh / subme=10 / psy=1 / psy_rd=1.00:0.15 / mixed_ref=1 / me_range=24 / chroma_me=1 / trellis=2 / 8x8dct=1 / cqm=0 / deadzone=21,11 / fast_pskip=1 / chroma_qp_offset=-3 / threads=5 / lookahead_threads=1 / sliced_threads=0 / nr=0 / decimate=1 / interlaced=0 / bluray_compat=0 / constrained_intra=0 / bframes=8 / b_pyramid=2 / b_adapt=2 / b_bias=0 / direct=3 / weightb=1 / open_gop=0 / weightp=2 / keyint=250 / keyint_min=25 / scenecut=40 / intra_refresh=0 / rc=crf / mbtree=0 / crf=18.0 / qcomp=0.60 / qpmin=0 / qpmax=69 / qpstep=4 / ip_ratio=1.40 / pb_ratio=1.30 / aq=1:1.00
Default : Yes
Forced : No

Audio #1
ID : 2
Format : AC-3
Format/Info : Audio Coding 3
Mode extension : CM (complete main)
Format settings, Endianness : Big
Muxing mode : Header stripping
Codec ID : A_AC3
Duration : 24mn 4s
Bit rate mode : Constant
Bit rate : 256 Kbps
Channel(s) : 2 channels
Channel positions : Front: L R
Sampling rate : 48.0 KHz
Bit depth : 16 bits
Compression mode : Lossy
Stream size : 44.1 MiB (9%)
Title : студия Нота
Language : Russian
Default : Yes
Forced : No

Audio #2
ID : 3
Format : AC-3
Format/Info : Audio Coding 3
Mode extension : CM (complete main)
Format settings, Endianness : Big
Muxing mode : Header stripping
Codec ID : A_AC3
Duration : 24mn 4s
Bit rate mode : Constant
Bit rate : 192 Kbps
Channel(s) : 2 channels
Channel positions : Front: L R
Sampling rate : 48.0 KHz
Bit depth : 16 bits
Compression mode : Lossy
Stream size : 33.1 MiB (7%)
Title : English
Language : English
Default : No
Forced : No

Text
ID : 4
Format : UTF-8
Codec ID : S_TEXT/UTF8
Codec ID/Info : UTF-8 Plain Text
Title : English
Language : English
Default : Yes
Forced : No



Скачать Чародей.2.Страна.Великого.Дракона.Spellbinder.Land.of.the.Dragon.Lord.(сезон.02).(Ноэль.Прайс).[1995.фантастика.фэнтези.приключения.семейный.DVDRip-AVC].[MVO]+[Engl].torrent без регистрации
Золото ЗОЛОТАЯ РАЗДАЧА! СКАЧАННОЕ НЕ ЗАСЧИТЫВАЕТСЯ! Золото
Дата: Зарегистрирован   [ Тип: внутренний ] Как тут cкачать?
MAGNET ссылка
MAGNET ссылка


Скачать .torrent

127 KB

Статус: проверено DHT
Скачан: торрент - 115 раз, раздача полностью - 54 раз
Размер: 12,45 GB
Оценка:  - (Голосов: 0)
Поблагодарили: 1
Поделиться ссылкой на эту раздачу с друзьями:
В контактеFacebookОдноклассникиTwitterLivejournalМой МирLiveinternet
 

 
Показать сообщения:    


Вы не можете начинать темы
Вы не можете отвечать на сообщения
Вы не можете редактировать свои сообщения
Вы не можете удалять свои сообщения
Вы не можете голосовать в опросах
Вы не можете прикреплять файлы к сообщениям
Вы можете скачивать файлы