Loading...
Error

Скачать Штамм / The Strain (сезон 02) (Гильермо дель Торо, Дэвид Семел) [2015, ужасы, фантастика, драма, WEB-DLRip] [MVO (OMSKBIRD records)]+[Original]+[Sub Rus, Eng] торрент без регистрации

 
Статистика раздачи
Размер:  10,17 GB   |    Скачан:  1692 раза
Сидов:  1  [  0 KB/s  ]  
 
Автор Сообщение

МихаНЕзатор

[] 



Штамм / The Strain


Год выпуска: 2015
Страна: США
Жанр: Ужасы, фантастика, драма
Продолжительность: ~ 00:58:10
Перевод: Любительский (многоголосый закадровый) OMSKBIRD records
Режиссёр: Гильермо дель Торо, Дэвид Семел

В ролях: Кори Столл (доктор Эфрам Гудвэзер), Кевин Дюран (Василий Фет), Натали Браун (Келли Гудвезер), Шон Эстин (Джим Кент), Дэвид Брэдли (Эбрахам Сетракян)

Роли озвучивали: Ольга Федорова, Павел Ярощик, Алексей Гнеушев, Алекс Дьяк и Максим Максимов
Перевод: Лилия Кушнаренко
Звукорежиссер: Павел Квентов

Описание: В аэропорту Нью-Йорка экстренно приземляется самолет, полный мертвецов. Для выяснения обстоятельств их смерти на борт направляются ученые, возглавляемые лучшим городским эпидемиологом Эфраимом Гудвезером (Кори Столл). В ходе исследований становится ясно, что пассажиры заражены вирусом вампиризма, который грозит перерасти в масштабную эпидемию, способную погубить все человечество. В обществе нарастает паника, а вызов болезни готовы бросить всего несколько человек: доктор Гудвезер, его команда медиков и группа обладающих специальными знаниями горожан, в состав которой войдет и крысолов по имени Василий Фет (Кевин Дюран).

Релиз-группа:

Качество: WEB-DLRip
Формат: AVI
Видео: XviD, 720x400 (16:9), 23.976 fps, ~1600 kbps, 0.234 bit/pixel
Аудио rus: AC-3, 48 KHz, 6 ch, 384 kbps | OMSKBIRD records
Аудио eng: AC-3, 48 KHz, 6 ch, 384 kbps | оригинал
Субтитры: Русский, Английский

АНОНСЫ ПОПУЛЯРНЫХ РАЗДАЧ


Торент обновлён, добавлена 13-я серия!

01. Бруклин, Нью-Йорк (BK, NY)
02. Любыми средствами /By Any Means
03. Форт неповиновения /Fort Defiance
04. Серебряный Ангел /The Silver Angel
05. Быстро и безболезненно /Quick and Painless
06. Сущность /Identity
07. Рождённый /The Born
08. Вторжение /Intruders
09. Битва за Ред Хук /The Battle for Red Hook
10. Убийца /The Assassin
11. Тупик /Dead End
12. Павший свет /Fallen Light
13. Ночной поезд /Night Train
Релиз подготовил: Skyns61
Сборка, работа со звуком, синхронизация субтитров: Skyns61
Общее
Полное имя : G:\Films\The.Strain.S02.WEB-DLRip.OmskBird\The.Strain.S02E01.400p.WEB-DLRip.OmskBird.DD5.1.avi
Формат : AVI
Формат/Информация : Audio Video Interleave
Размер файла : 998 Мбайт
Продолжительность : 58 м.
Общий поток : 2397 Кбит/сек
Программа кодирования : VirtualDubMod 1.5.10.3 (build 2550/release)
Библиотека кодирования : VirtualDubMod build 2550/release
Видео
Идентификатор : 0
Формат : MPEG-4 Visual
Профиль формата : Advanced Simple@L5
Параметр BVOP формата : 1
Параметр QPel формата : Нет
Параметр GMC формата : Без точки перехода
Параметр матрицы формата : Default (MPEG)
Идентификатор кодека : XVID
Идентификатор кодека/Подсказка : XviD
Продолжительность : 58 м.
Битрейт : 1615 Кбит/сек
Ширина : 720 пикселей
Высота : 400 пикселей
Соотношение сторон : 16:9
Частота кадров : 23,976 кадра/сек
Цветовое пространство : YUV
Субдискретизация насыщенности : 4:2:0
Битовая глубина : 8 бит
Тип развёртки : Прогрессивная
Метод сжатия : С потерями
Бит/(Пиксели*Кадры) : 0.234
Размер потока : 672 Мбайт (67%)
Библиотека кодирования : XviD 64
Аудио #1
Идентификатор : 1
Формат : AC-3
Формат/Информация : Audio Coding 3
Расширение режима : CM (complete main)
Параметр Endianness формата : Big
Идентификатор кодека : 2000
Продолжительность : 58 м.
Вид битрейта : Постоянный
Битрейт : 384 Кбит/сек
Каналы : 6 каналов
Расположение каналов : Front: L C R, Side: L R, LFE
Частота : 48,0 КГц
Битовая глубина : 16 бит
Метод сжатия : С потерями
Размер потока : 160 Мбайт (16%)
Выравнивание : Разделение по промежуткам
Продолжительность промежутка : 42 мс. (1,00 видеокадр)
Время предзагрузки промежутка : 500 мс.
Аудио #2
Идентификатор : 2
Формат : AC-3
Формат/Информация : Audio Coding 3
Расширение режима : CM (complete main)
Параметр Endianness формата : Big
Идентификатор кодека : 2000
Продолжительность : 58 м.
Вид битрейта : Постоянный
Битрейт : 384 Кбит/сек
Каналы : 6 каналов
Расположение каналов : Front: L C R, Side: L R, LFE
Частота : 48,0 КГц
Битовая глубина : 16 бит
Метод сжатия : С потерями
Размер потока : 160 Мбайт (16%)
Выравнивание : Разделение по промежуткам
Продолжительность промежутка : 42 мс. (1,00 видеокадр)
Время предзагрузки промежутка : 500 мс.

Внимание! Раздача ведётся путём добавления новых серий; при каждом добавлении создётся новый торрент. Чтобы начать докачку новой серии, пользователям необходимо сделать следующее:
Остановить скачивание.
Удалить старый торрент у себя из клиента (старые серии удалять не надо).
Скачать новый торрент и запустить его у себя в клиенте вместо старого, при этом указать клиенту путь в старую папку куда и должно происходить скачивание новых серий.
Ваш клиент при этом должен произвести хеширование (проверку) старой папки (если не производит сам - помогите ему сделать это), и будет докачивать только те серии которых у вас ещё нет. Старые серии при этом не удаляются, а продолжают раздаваться!
Eсли вы уже удалили старые серии, то предотвратить повторную закачку старых серий можно, отжав галочку в соответсвующих местах при запуске нового торрента. По возможности, желательно не удалять старые серии как можно дольше чтобы релизёр не столько продолжал раздавать старые серии, а смог сконцентрироваться на новых.



Скачать Штамм.The.Strain.(сезон.02).(Гильермо.дель.Торо.Дэвид.Семел).[2015.ужасы.фантастика.драма.WEB-DLRip].[MVO.(OMSKBIRD.records)]+[Original]+[Sub.Rus.Eng].torrent без регистрации
Золото ЗОЛОТАЯ РАЗДАЧА! СКАЧАННОЕ НЕ ЗАСЧИТЫВАЕТСЯ! Золото
Дата: Зарегистрирован   [ Тип: внутренний ] Как тут cкачать?
MAGNET ссылка
MAGNET ссылка


Скачать .torrent

30 KB

Статус: проверено DHT
Скачан: торрент - 1692 раз, раздача полностью - 0 раз
Размер: 10,17 GB
Оценка:  - (Голосов: 0)
Поблагодарили: 2
Поделиться ссылкой на эту раздачу с друзьями:
В контактеFacebookОдноклассникиTwitterLivejournalМой МирLiveinternet
 

 
Показать сообщения:    


Вы не можете начинать темы
Вы не можете отвечать на сообщения
Вы не можете редактировать свои сообщения
Вы не можете удалять свои сообщения
Вы не можете голосовать в опросах
Вы не можете прикреплять файлы к сообщениям
Вы можете скачивать файлы