Loading...
Error

Скачать Конфискатор / Repo Man (Алекс Кокс) [1984, боевик, фантастика, комедия, BDRip-AVC] [DVO]+[AVO]x2+[Оригинал]+[Sub] торрент без регистрации

 
Статистика раздачи
Размер:  2,46 GB   |    Скачан:  101 раз
Сидов:  1  [  0 KB/s  ]  
 
Автор Сообщение

Marsianka

[] 

Конфискатор / Repo Man (1984) BDRip-AVC
Производство: США, Edge City
Жанр: боевик, фантастика, комедия

Режиссер: Алекс Кокс
Актеры: Эмилио Эстевез, Гарри Дин Стэнтон, Трейси Уолтер, Оливия Бэраш, Сай Ричардсон, Сьюзэн Барнс, Фокс Харрис, Том Финнеган, Дел Замора, Эдди Велес, Зандер Шлосс, Дженнифер Бэлгобин, Дик Руд, Мигель Сандовал, Вонетта МакГи, Ричард Форонджи, Брюс Уайт, Бифф Йеджер, Эд Пэнсалло, Стив Маттсон, Томас Р. Бойд, Чарльз Хопкинс, Хелен Мартин, Джон Ст. Элвуд, Келитта Келли

Описание:
Сердитый молодой парень с серьгой в ухе, уволенный из супермаркета за неуживчивый характер и незамысловатую привычку посылать всех на три буквы, знакомится с экспроприатором, и это меняет его судьбу. Эти люди должны возвращать купленные в рассрочку автомобили, если покупатели прекращают выплачивать взносы, что сопряжено зачастую с опасностью. Но не это главное... ФБР разыскивает автомобиль «Шевроле-Малибу», в багажнике которого лежит радиоактивный труп инопланетянина. Всякий, открывший багажник, превратится в пепел. Бригада экспроприаторов начинает охоту за опасной машиной, за рулем которой — физик-ядерщик…



Релиз от: FAGOT100 (NNM-CLUB)
Продолжительность: 01:32:22
Качество видео: BDRip-AVC
Перевод: Профессиональный (двухголосый, закадровый), авторский (одноголосый, закадровый) х2
Субтитры: Английский
Чаптеры: Есть

Видео: AVC, 1024x576 (16:9), 23.976 fps, 2 849 Kbps (0.201 bit/pixel)
Аудио #1: AC-3, 48.0 KHz, 2 ch, 192 Kbps, CBR (Russian) - двухголосый
Аудио #2: AC-3, 48.0 KHz, 2 ch, 192 Kbps, CBR (Russian) - авторский С.Визгунов
Аудио #3: AC-3, 48.0 KHz, 2 ch, 192 Kbps, CBR (Russian) - авторский А.Дольский
Аудио #4: AC-3, 48.0 KHz, 2 ch, 192 Kbps, CBR (English) - оригинал
Аудио #5: AC-3, 48.0 KHz, 1 ch, 192 Kbps, CBR (English) - комментарии
---[Information] [24.09.2015 10:18:37] x264 [info]: frame I:809 Avg QP:17.08 size: 80183
---[Information] [24.09.2015 10:18:37] x264 [info]: frame P:26533 Avg QP:19.82 size: 27332
---[Information] [24.09.2015 10:18:37] x264 [info]: frame B:105540 Avg QP:21.34 size: 11205

Код:


Формат                                   : Matroska
Версия формата                           : Version 2
Размер файла                             : 2,46 Гбайт
Продолжительность                        : 1 ч. 32 м.
Общий поток                              : 3810 Кбит/сек
Дата кодирования                         : UTC 2015-09-24 07:52:16
Программа кодирования                    : mkvmerge v5.3.0 ('I could have danced') built on Feb  9 2012 10:38:07
Библиотека кодирования                   : libebml v1.2.3 + libmatroska v1.3.0
Attachment                               : Yes

Видео
Идентификатор                            : 1
Формат                                   : AVC
Формат/Информация                        : Advanced Video Codec
Профиль формата                          : High@L4.1
Параметр CABAC формата                   : Да
Параметр ReFrames формата                : 9 кадров
Идентификатор кодека                     : V_MPEG4/ISO/AVC
Продолжительность                        : 1 ч. 32 м.
Битрейт                                  : 2849 Кбит/сек
Ширина                                   : 1024 пикселя
Высота                                   : 576 пикселей
Соотношение сторон                       : 16:9
Режим частоты кадров                     : Постоянный
Частота кадров                           : 23,976 кадра/сек
Цветовое пространство                    : YUV
Субдискретизация насыщенности            : 4:2:0
Битовая глубина                          : 8 бит
Тип развёртки                            : Прогрессивная
Бит/(Пиксели*Кадры)                      : 0.201
Размер потока                            : 1,79 Гбайт (73%)
Библиотека кодирования                   : x264 core 146 r2538 121396c
Настройки программы                      : cabac=1 / ref=9 / deblock=1:-3:-3 / analyse=0x3:0x133 / me=umh / subme=11 / psy=1 / psy_rd=1.00:0.00 / mixed_ref=1 / me_range=32 / chroma_me=1 / trellis=2 / 8x8dct=1 / cqm=0 / deadzone=21,11 / fast_pskip=0 / chroma_qp_offset=-2 / threads=12 / lookahead_threads=3 / sliced_threads=0 / nr=0 / decimate=0 / interlaced=0 / bluray_compat=0 / constrained_intra=0 / bframes=10 / b_pyramid=2 / b_adapt=2 / b_bias=0 / direct=3 / weightb=1 / open_gop=0 / weightp=2 / keyint=240 / keyint_min=23 / scenecut=40 / intra_refresh=0 / rc=2pass / mbtree=0 / bitrate=2849 / ratetol=1.0 / qcomp=0.60 / qpmin=0 / qpmax=69 / qpstep=4 / cplxblur=20.0 / qblur=0.5 / ip_ratio=1.40 / pb_ratio=1.30 / aq=1:1.00
Язык                                     : English
Default                                  : Да
Forced                                   : Нет

Аудио #1
Идентификатор                            : 2
Формат                                   : AC-3
Формат/Информация                        : Audio Coding 3
Расширение режима                        : CM (complete main)
Параметр Endianness формата              : Big
Идентификатор кодека                     : A_AC3
Продолжительность                        : 1 ч. 32 м.
Вид битрейта                             : Постоянный
Битрейт                                  : 192 Кбит/сек
Каналы                                   : 2 канала
Расположение каналов                     : Front: L R
Частота                                  : 48,0 КГц
Битовая глубина                          : 16 бит
Метод сжатия                             : С потерями
Размер потока                            : 127 Мбайт (5%)
Заголовок                                : Профессиональный (двухголосый, закадровый)
Язык                                     : Russian
Default                                  : Да
Forced                                   : Нет

Аудио #2
Идентификатор                            : 3
Формат                                   : AC-3
Формат/Информация                        : Audio Coding 3
Расширение режима                        : CM (complete main)
Параметр Endianness формата              : Big
Идентификатор кодека                     : A_AC3
Продолжительность                        : 1 ч. 32 м.
Вид битрейта                             : Постоянный
Битрейт                                  : 192 Кбит/сек
Каналы                                   : 2 канала
Расположение каналов                     : Front: L R
Частота                                  : 48,0 КГц
Битовая глубина                          : 16 бит
Метод сжатия                             : С потерями
Размер потока                            : 127 Мбайт (5%)
Заголовок                                : С. Визгунов
Язык                                     : Russian
Default                                  : Нет
Forced                                   : Нет

Аудио #3
Идентификатор                            : 4
Формат                                   : AC-3
Формат/Информация                        : Audio Coding 3
Расширение режима                        : CM (complete main)
Параметр Endianness формата              : Big
Идентификатор кодека                     : A_AC3
Продолжительность                        : 1 ч. 32 м.
Вид битрейта                             : Постоянный
Битрейт                                  : 192 Кбит/сек
Каналы                                   : 2 канала
Расположение каналов                     : Front: L R
Частота                                  : 48,0 КГц
Битовая глубина                          : 16 бит
Метод сжатия                             : С потерями
Размер потока                            : 127 Мбайт (5%)
Заголовок                                : А. Дольский
Язык                                     : Russian
Default                                  : Нет
Forced                                   : Нет

Аудио #4
Идентификатор                            : 5
Формат                                   : AC-3
Формат/Информация                        : Audio Coding 3
Расширение режима                        : CM (complete main)
Параметр Endianness формата              : Big
Идентификатор кодека                     : A_AC3
Продолжительность                        : 1 ч. 32 м.
Вид битрейта                             : Постоянный
Битрейт                                  : 192 Кбит/сек
Каналы                                   : 2 канала
Расположение каналов                     : Front: L R
Частота                                  : 48,0 КГц
Битовая глубина                          : 16 бит
Метод сжатия                             : С потерями
Размер потока                            : 127 Мбайт (5%)
Заголовок                                : оригинал
Язык                                     : English
Default                                  : Нет
Forced                                   : Нет

Аудио #5
Идентификатор                            : 6
Формат                                   : AC-3
Формат/Информация                        : Audio Coding 3
Расширение режима                        : CM (complete main)
Параметр Endianness формата              : Big
Идентификатор кодека                     : A_AC3
Продолжительность                        : 1 ч. 32 м.
Вид битрейта                             : Постоянный
Битрейт                                  : 192 Кбит/сек
Каналы                                   : 1 канал
Расположение каналов                     : Front: C
Частота                                  : 48,0 КГц
Битовая глубина                          : 16 бит
Метод сжатия                             : С потерями
Размер потока                            : 127 Мбайт (5%)
Заголовок                                : Commentary
Язык                                     : English
Default                                  : Нет
Forced                                   : Нет

Текст
Идентификатор                            : 7
Формат                                   : UTF-8
Идентификатор кодека                     : S_TEXT/UTF8
Идентификатор кодека/Информация          : UTF-8 Plain Text
Язык                                     : English
Default                                  : Да
Forced                                   : Нет

Меню
00:00:00.000                             : :Chapter 01
00:04:39.278                             : :Chapter 02
00:07:54.098                             : :Chapter 03
00:11:24.849                             : :Chapter 04
00:14:34.874                             : :Chapter 05
00:19:02.974                             : :Chapter 06
00:23:50.971                             : :Chapter 07
00:30:26.574                             : :Chapter 08
00:33:15.576                             : :Chapter 09
00:39:19.065                             : :Chapter 10
00:46:01.717                             : :Chapter 11
00:51:36.802                             : :Chapter 12
00:57:59.184                             : :Chapter 13
01:05:15.453                             : :Chapter 14
01:12:34.390                             : :Chapter 15
01:17:27.184                             : :Chapter 16
01:22:58.807                             : :Chapter 17
01:29:14.223                             : :Chapter 18
01:32:22.078                             : :Chapter 19



Скачать Конфискатор.Repo.Man.(Алекс.Кокс).[1984.боевик.фантастика.комедия.BDRip-AVC].[DVO]+[AVO]x2+[Оригинал]+[Sub].torrent без регистрации
Золото ЗОЛОТАЯ РАЗДАЧА! СКАЧАННОЕ НЕ ЗАСЧИТЫВАЕТСЯ! Золото
Дата: Зарегистрирован   [ Тип: внутренний ] Как тут cкачать?
MAGNET ссылка
MAGNET ссылка


Скачать .torrent

13 KB

Статус: проверено DHT
Скачан: торрент - 101 раз, раздача полностью - 3 раз
Размер: 2,46 GB
Оценка:  - (Голосов: 0)
Поблагодарили: 1
Поделиться ссылкой на эту раздачу с друзьями:
В контактеFacebookОдноклассникиTwitterLivejournalМой МирLiveinternet
 

 
Показать сообщения:    


Вы не можете начинать темы
Вы не можете отвечать на сообщения
Вы не можете редактировать свои сообщения
Вы не можете удалять свои сообщения
Вы не можете голосовать в опросах
Вы не можете прикреплять файлы к сообщениям
Вы можете скачивать файлы