Loading...
Error

Скачать Три женщины и мужчина (Виталий Дудин) [1998, Комедия, мелодрама, DVDRip] торрент без регистрации

 
Статистика раздачи
Размер:  745 MB   |    Скачан:  86 раз

Полного источника не было: 12 дней

 
Автор Сообщение

Шкипер

[] 


Три женщины и мужчина


Год выпуска: 1998
Выпущено: Беларусь
Жанр: Комедия, мелодрама
Продолжительность: 01:26:09
Перевод: Не требуется
Субтитры: Отсутствует

Режиссер: Виталий Дудин

В ролях: Александр Песков, Евгения Глушенко, Нина Усатова, Юлия Полубинская, Виктор Мережко, Ростислав Янковский, Игорь Забара, Светлана Никифорова, Юрий Бердников, Юрий Болохов, Дарья Забелина, Виталий Рогачевский

Описание: В Россию к своей двоюродной сестре приезжает дама, долгие годы прожившая в Париже. Обе женщины немолоды — им под пятьдесят, и обе влюблены в молодого парикмахера. Вскоре у них появляется и юная соперница. И теперь услужливый авантюрист вынужден «водить за нос» уже троих воздыхательниц…









Качество: DVDRip
Формат: AVI
Видео кодек: XviD
Аудио кодек: MP3
Видео: 512x384 (1.33:1), 25 fps, XviD build 73 ~1071 kbps avg, 0.22 bit/pixel
Аудио: 48 kHz, MPEG Layer 3, 2 ch, ~128.00 kbps avg

General
Complete name : D:Изготовление риповTri zenchini i muzchina (1998) DVDrip by shkiper.avi
Format : AVI
Format/Info : Audio Video Interleave
File size : 745 MiB
Duration : 1h 26mn
Overall bit rate : 1 210 Kbps
Writing application : VirtualDubMod 1.5.10.3 | www.virtualdub-fr.org || (build 2550/release)
Writing library : VirtualDubMod build 2550/release

Video
ID : 0
Format : MPEG-4 Visual
Format profile : Advanced Simple@L5
Format settings, BVOP : 1
Format settings, QPel : No
Format settings, GMC : No warppoints
Format settings, Matrix : Custom
Codec ID : XVID
Codec ID/Hint : XviD
Duration : 1h 26mn
Bit rate : 1 072 Kbps
Width : 512 pixels
Height : 384 pixels
Display aspect ratio : 4:3
Frame rate : 25.000 fps
Color space : YUV
Chroma subsampling : 4:2:0
Bit depth : 8 bits
Scan type : Progressive
Compression mode : Lossy
Bits/(Pixel*Frame) : 0.218
Stream size : 660 MiB (89%)
Writing library : XviD 73

Audio
ID : 1
Format : MPEG Audio
Format version : Version 1
Format profile : Layer 3
Mode : Joint stereo
Mode extension : MS Stereo
Codec ID : 55
Codec ID/Hint : MP3
Duration : 1h 26mn
Bit rate mode : Constant
Bit rate : 128 Kbps
Channel(s) : 2 channels
Sampling rate : 48.0 KHz
Compression mode : Lossy
Stream size : 78.9 MiB (11%)
Alignment : Aligned on interleaves
Interleave, duration : 40 ms (1.00 video frame)
Interleave, preload duration : 504 ms
Writing library : LAME3.99r
Encoding settings : -m j -V 4 -q 2 -lowpass 17 -b 128





Скачать Три.женщины.и.мужчина.(Виталий.Дудин).[1998.Комедия.мелодрама.DVDRip].torrent без регистрации
Золото ЗОЛОТАЯ РАЗДАЧА! СКАЧАННОЕ НЕ ЗАСЧИТЫВАЕТСЯ! Золото
Дата: Зарегистрирован   [ Тип: внутренний ] Как тут cкачать?
MAGNET ссылка
MAGNET ссылка


Скачать .torrent

15 KB

Статус: проверено
Скачан: торрент - 86 раз, раздача полностью - 5 раз
Размер: 745 MB
Оценка:  2 (Голосов: 1)
Поблагодарили: 0
Поделиться ссылкой на эту раздачу с друзьями:
В контактеFacebookОдноклассникиTwitterLivejournalМой МирLiveinternet
 

 
Показать сообщения:    


Вы не можете начинать темы
Вы не можете отвечать на сообщения
Вы не можете редактировать свои сообщения
Вы не можете удалять свои сообщения
Вы не можете голосовать в опросах
Вы не можете прикреплять файлы к сообщениям
Вы можете скачивать файлы