Loading...
Error

Скачать Серпико / Serpico (Сидни Люмет) [1973, боевик, драма, мелодрама, криминал, биография, BDRip-AVC] [MVO]x2+[DVO]+[AVO]+[Sub]x2 торрент без регистрации

 
Статистика раздачи
Размер:  3,67 GB   |    Скачан:  94 раза
Сидов:  1  [  0 KB/s  ]  
 
Автор Сообщение

Marsianka

[] 

Информация о фильме
Название: Серпико
Оригинальное название: Serpico
Год выхода: 1973
Жанр: боевик, драма, мелодрама, криминал, биография
Режиссер: Сидни Люмет
В ролях: Аль Пачино, Джон Рэндольф, Джек Кихоу, Бифф МакГуайр, Барбара Ида-Янг, Корнелия Шарп, Тони Робертс, М. Эммет Уолш, Ф. Мюррей Абрахам, Кеннет МакМиллан, Аллан Рич, Джон Медичи, Норман Орнеллас

О фильме:
В основу сюжета положена реальная история нью-йоркского полицейского, который обнаруживает, что в его работе понятия честь и честность не являются обязательными. Он стойко переносит презрение и плохое отношение к себе со стороны других полицейских, стараясь честно выполнять свою работу.



Страна: США, Италия, Artists Entertainment Complex, Produzioni De Laurentiis International Manufacturing Company
Продолжительность: 02:10:06
Перевод: Профессиональный многоголосый, профессиональный двухголосый, авторский одноголосый
Субтитры: Русские, английские

Дата релиза: 05.11.2012

Файл
Кодек: H.264
Качество: BDRip (AVC) (Blu-Ray Remux (1080p))
Видео: MPEG-4 AVC, 2499 Кбит/с, 1024x556, 23.976 кадр/с

Аудио 1: Русский (AC3, 2 ch, 224 Кбит/с) - авторский одноголосый (Ю.Сербин)
Аудио 2: Русский (AC3, 6 ch, 448 Кбит/с) - профессиональный многоголосый (R5)
Аудио 3: Русский (AC3, 2 ch, 192 Кбит/с) - профессиональный двухголосый (А. Белый и О. Кузнецова, НТВ+)
Аудио 4: Русский (AC3, 6 ch, 448 Кбит/с) - профессиональный многоголосый
Аудио 5: Английский (AC3, 2 ch, 224 Кбит/с)
Общее
Уникальный идентификатор : 255067782217098451020027646426732746100 (0xBFE4449928F1C190A141CE9D6666D574)
Полное имя : G:1Serpiko.1973.x264.BDRip.(AVC).ExKinoRay.mkv
Формат : Matroska
Версия формата : Version 2
Размер файла : 3,67 Гбайт
Продолжительность : 2 ч. 10 м.
Общий поток : 4038 Кбит/сек
Название фильма : Serpiko.1973.x264.BDRip.(AVC).ExKinoRay
Дата кодирования : UTC 2012-11-05 16:43:45
Программа кодирования : mkvmerge v4.0.0 ('The Stars were mine') сборка от Jun 6 2010 16:18:42
Библиотека кодирования : libebml v1.0.0 + libmatroska v1.0.0

Видео
Идентификатор : 1
Формат : AVC
Формат/Информация : Advanced Video Codec
Профиль формата : High@L4.1
Параметр CABAC формата : Да
Параметр ReFrames формата : 8 кадров
Идентификатор кодека : V_MPEG4/ISO/AVC
Продолжительность : 2 ч. 10 м.
Битрейт : 2499 Кбит/сек
Ширина : 1024 пикселя
Высота : 556 пикселей
Соотношение сторон : 16:9
Частота кадров : 23,976 кадра/сек
Цветовое пространство : YUV
Субдискретизация насыщенности : 4:2:0
Битовая глубина : 8 бит
Тип развёртки : Прогрессивная
Бит/(Пиксели*Кадры) : 0.183
Размер потока : 2,20 Гбайт (60%)
Заголовок : Rip by Enigma-Vladislav71
Библиотека кодирования : x264 core 116 r2074 2641b9e
Настройки программы : cabac=1 / ref=8 / deblock=1:-2:-2 / analyse=0x3:0x133 / me=umh / subme=11 / psy=1 / psy_rd=1.00:0.00 / mixed_ref=1 / me_range=48 / chroma_me=1 / trellis=2 / 8x8dct=1 / cqm=0 / deadzone=21,11 / fast_pskip=0 / chroma_qp_offset=-2 / threads=3 / sliced_threads=0 / nr=0 / decimate=0 / interlaced=0 / bluray_compat=0 / constrained_intra=0 / bframes=8 / b_pyramid=2 / b_adapt=2 / b_bias=0 / direct=3 / weightb=1 / open_gop=0 / weightp=2 / keyint=240 / keyint_min=23 / scenecut=40 / intra_refresh=0 / rc=2pass / mbtree=0 / bitrate=2499 / ratetol=1.0 / qcomp=0.60 / qpmin=10 / qpmax=51 / qpstep=4 / cplxblur=20.0 / qblur=0.5 / ip_ratio=1.40 / pb_ratio=1.30 / aq=2:1.00
Язык : English
Default : Нет
Forced : Нет

Аудио #1
Идентификатор : 2
Формат : AC-3
Формат/Информация : Audio Coding 3
Расширение режима : CM (complete main)
Идентификатор кодека : A_AC3
Продолжительность : 2 ч. 10 м.
Вид битрейта : Постоянный
Битрейт : 224 Кбит/сек
Каналы : 2 канала
Расположение каналов : Front: L R
Частота : 48,0 КГц
Битовая глубина : 16 бит
Метод сжатия : С потерями
Размер потока : 208 Мбайт (6%)
Заголовок : (Ю.Сербин)
Язык : Russian
Default : Да
Forced : Нет

Аудио #2
Идентификатор : 3
Формат : AC-3
Формат/Информация : Audio Coding 3
Расширение режима : CM (complete main)
Идентификатор кодека : A_AC3
Продолжительность : 2 ч. 10 м.
Вид битрейта : Постоянный
Битрейт : 448 Кбит/сек
Каналы : 6 каналов
Расположение каналов : Front: L C R, Side: L R, LFE
Частота : 48,0 КГц
Битовая глубина : 16 бит
Метод сжатия : С потерями
Размер потока : 417 Мбайт (11%)
Заголовок : многоголосый (R5)
Язык : Russian
Default : Нет
Forced : Нет

Аудио #3
Идентификатор : 4
Формат : AC-3
Формат/Информация : Audio Coding 3
Расширение режима : CM (complete main)
Идентификатор кодека : A_AC3
Продолжительность : 2 ч. 10 м.
Вид битрейта : Постоянный
Битрейт : 192 Кбит/сек
Каналы : 2 канала
Расположение каналов : Front: L R
Частота : 48,0 КГц
Битовая глубина : 16 бит
Метод сжатия : С потерями
Размер потока : 179 Мбайт (5%)
Заголовок : двухголосый (А. Белый и О. Кузнецова, НТВ+)
Язык : Russian
Default : Нет
Forced : Нет

Аудио #4
Идентификатор : 5
Формат : AC-3
Формат/Информация : Audio Coding 3
Расширение режима : CM (complete main)
Идентификатор кодека : A_AC3
Продолжительность : 2 ч. 10 м.
Вид битрейта : Постоянный
Битрейт : 448 Кбит/сек
Каналы : 6 каналов
Расположение каналов : Front: L C R, Side: L R, LFE
Частота : 48,0 КГц
Битовая глубина : 16 бит
Метод сжатия : С потерями
Размер потока : 417 Мбайт (11%)
Заголовок : многоголосый
Язык : Russian
Default : Нет
Forced : Нет

Аудио #5
Идентификатор : 6
Формат : AC-3
Формат/Информация : Audio Coding 3
Расширение режима : CM (complete main)
Идентификатор кодека : A_AC3
Продолжительность : 2 ч. 10 м.
Вид битрейта : Постоянный
Битрейт : 224 Кбит/сек
Каналы : 2 канала
Расположение каналов : Front: L R
Частота : 48,0 КГц
Битовая глубина : 16 бит
Метод сжатия : С потерями
Размер потока : 208 Мбайт (6%)
Заголовок : Английский
Язык : English
Default : Нет
Forced : Нет

Текст #1
Идентификатор : 7
Формат : UTF-8
Идентификатор кодека : S_TEXT/UTF8
Идентификатор кодека/Информация : UTF-8 Plain Text
Язык : Russian
Default : Да
Forced : Нет

Текст #2
Идентификатор : 8
Формат : UTF-8
Идентификатор кодека : S_TEXT/UTF8
Идентификатор кодека/Информация : UTF-8 Plain Text
Язык : English
Default : Нет
Forced : Нет

Меню
00:00:00.000 : en:Chapter 01
00:09:34.949 : en:Chapter 02
00:20:46.370 : en:Chapter 03
00:32:02.837 : en:Chapter 04
00:43:09.628 : en:Chapter 05
00:55:29.159 : en:Chapter 06
01:05:31.010 : en:Chapter 07
01:16:11.567 : en:Chapter 08
01:24:43.870 : en:Chapter 09
01:35:56.041 : en:Chapter 10
01:47:08.505 : en:Chapter 11
02:00:08.075 : en:Chapter 12
Семпл Релиз от:

Авторы релиза:



Скачать Серпико.Serpico.(Сидни.Люмет).[1973.боевик.драма.мелодрама.криминал.биография.BDRip-AVC].[MVO]x2+[DVO]+[AVO]+[Sub]x2.torrent без регистрации
Золото ЗОЛОТАЯ РАЗДАЧА! СКАЧАННОЕ НЕ ЗАСЧИТЫВАЕТСЯ! Золото
Дата: Зарегистрирован   [ Тип: внутренний ] Как тут cкачать?
MAGNET ссылка
MAGNET ссылка


Скачать .torrent

19 KB

Статус: проверено DHT
Скачан: торрент - 94 раз, раздача полностью - 0 раз
Размер: 3,67 GB
Оценка:  - (Голосов: 0)
Поблагодарили: 1
Поделиться ссылкой на эту раздачу с друзьями:
В контактеFacebookОдноклассникиTwitterLivejournalМой МирLiveinternet
 

 
Показать сообщения:    


Вы не можете начинать темы
Вы не можете отвечать на сообщения
Вы не можете редактировать свои сообщения
Вы не можете удалять свои сообщения
Вы не можете голосовать в опросах
Вы не можете прикреплять файлы к сообщениям
Вы можете скачивать файлы