Loading...
Error

/ Ronin ( / John Frankenheimer) [1998, , , , , BDRip] [DUB]

 
1,46 GB   |    :  132

: 22

 

leon030982

[] 

/ Ronin

: 1998
: , ,
: , , ,
: 02:01:33
: ( )

C:
: / John Frankenheimer
: (Sam), (Vincent), (Deirdre), (Gregor), (Spence), (Larry), (Jean-Pierre), (Dapper Gent), (Seamus O'Rourke), (Man with the Newspaper)
:
, , , , . , , .
, , , : . , , :
| | IMDB | | |
: BDRip
: AVI
: 720x304 (2.37:1), 23.976 fps, XviD build 73 ~1515 kbps avg, 0.29 bit/pixel
: 48 kHz, AC3 Dolby Digital, 2/0 (L,R) ch, ~192.00 kbps avg

* , Sergunka172 * ale_x2008

:

General
Complete name : D:\Ronin_1998_BDRip_by_Dalemake.avi
Format : AVI
Format/Info : Audio Video Interleave
File size : 1.46 GiB
Duration : 2h 1mn
Overall bit rate : 1 716 Kbps
Writing application : VirtualDubMod 1.5.10.3 | www.virtualdub-fr.org || (build 2550/release)
Writing library : VirtualDubMod build 2550/release
Video
ID : 0
Format : MPEG-4 Visual
Format profile : Advanced Simple@L5
Format settings, BVOP : 1
Format settings, QPel : No
Format settings, GMC : No warppoints
Format settings, Matrix : Custom
Codec ID : XVID
Codec ID/Hint : XviD
Duration : 2h 1mn
Bit rate : 1 515 Kbps
Width : 720 pixels
Height : 304 pixels
Display aspect ratio : 2.35:1
Frame rate : 23.976 fps
Color space : YUV
Chroma subsampling : 4:2:0
Bit depth : 8 bits
Scan type : Progressive
Compression mode : Lossy
Bits/(Pixel*Frame) : 0.289
Stream size : 1.29 GiB (88%)
Writing library : XviD 73
Audio
ID : 1
Format : AC-3
Format/Info : Audio Coding 3
Mode extension : CM (complete main)
Format settings, Endianness : Big
Codec ID : 2000
Duration : 2h 1mn
Bit rate mode : Constant
Bit rate : 192 Kbps
Channel(s) : 2 channels
Channel positions : Front: L R
Sampling rate : 48.0 KHz
Bit depth : 16 bits
Compression mode : Lossy
Stream size : 167 MiB (11%)
Alignment : Split accross interleaves
Interleave, duration : 42 ms (1.00 video frame)
Interleave, preload duration : 500 ms




.Ronin.(..John.Frankenheimer).[1998.....BDRip].[DUB].torrent
  ! ! 
:   [ : ] c?
MAGNET
MAGNET


.torrent

15 KB

: DHT
: - 132 , - 15
: 1,46 GB
5 (: 2)
: 2
:
 FacebookTwitterLivejournal Liveinternet
 

 
: