Loading...
Error

Скачать Безумная шестерка / Crazy Six (Альберт Пьюн) [1997, боевик, криминал, HDRip-AVC] [MVO]+[AVO]+[Оригинал] торрент без регистрации

 
Статистика раздачи
Размер:  2,14 GB   |    Скачан:  126 раз
Сидов:  1  [  0 KB/s  ]  
 
Автор Сообщение

Marsianka

[] 

Безумная шестерка / Crazy Six (1997) HDRip-AVC
Производство: США
Жанр: боевик, криминал

Режиссер: Альберт Пьюн
Актеры: Роб Лоу, Айс-Ти, Берт Рейнолдс, Марио Ван Пиблз, Ивана Миличевич, Том Мэтьюз, Бланка Клейнова, Норберт Вайссер, Дональд Стэнден, Макс Ван Пиблз

Описание:
Из стран бывшего СССР в восточную Европу хлынул неудержимый поток преступности. Торговцы оружием и военными технологиями облюбовали Прагу. «Безумная шестерка» и его команда здесь в цене. Очередной заказ — «вмешаться» в ход сделки по продаже радиоактивных веществ. Товар перехвачен, деньги — у заказчика.
Самое время выйти из этого сумасшедшего мира, где кругом смерть, наркотики и предательство, но кто-то решил, что ему еще рано, и рука снова тянется к пистолету…



Релиз от: FAGOT100 (NNM-CLUB)
Продолжительность: 01:34:56
Качество видео: HDRip-AVC
Перевод: Профессиональный (многоголосый, закадровый), авторский (одноголосый, закадровый)
Субтитры: Отсутствуют

Видео: AVC, 1024x576 (16:9), 23.976 fps, 2 649 Kbps (0.187 bit/pixel)
Аудио #1: AC-3, 48.0 KHz, 2 ch, 192 Kbps, CBR (Russian) - многоголосый
Аудио #2: AC-3, 48.0 KHz, 2 ch, 192 Kbps, CBR (Russian) - В.Горчаков
Аудио #3: AC-3, 48.0 KHz, 2 ch, 192 Kbps, CBR (English) - оригинал
Формат : Matroska
Версия формата : Version 2
Размер файла : 2,14 Гбайт
Продолжительность : 1 ч. 34 м.
Общий поток : 3225 Кбит/сек
Название фильма : Crazy.Six.1997
Дата кодирования : UTC 2015-09-26 14:44:01
Программа кодирования : mkvmerge v5.3.0 ('I could have danced') built on Feb 9 2012 10:38:07
Библиотека кодирования : libebml v1.2.3 + libmatroska v1.3.0
Attachment : Yes

Видео
Идентификатор : 1
Формат : AVC
Формат/Информация : Advanced Video Codec
Профиль формата : High@L4.1
Параметр CABAC формата : Да
Параметр ReFrames формата : 9 кадров
Идентификатор кодека : V_MPEG4/ISO/AVC
Продолжительность : 1 ч. 34 м.
Битрейт : 2649 Кбит/сек
Ширина : 1024 пикселя
Высота : 576 пикселей
Соотношение сторон : 16:9
Режим частоты кадров : Постоянный
Частота кадров : 23,976 кадра/сек
Цветовое пространство : YUV
Субдискретизация насыщенности : 4:2:0
Битовая глубина : 8 бит
Тип развёртки : Прогрессивная
Бит/(Пиксели*Кадры) : 0.187
Размер потока : 1,71 Гбайт (80%)
Библиотека кодирования : x264 core 146 r2538 121396c
Настройки программы : cabac=1 / ref=9 / deblock=1:-2:-2 / analyse=0x3:0x133 / me=umh / subme=10 / psy=1 / psy_rd=1.00:0.15 / mixed_ref=1 / me_range=32 / chroma_me=1 / trellis=2 / 8x8dct=1 / cqm=0 / deadzone=21,11 / fast_pskip=0 / chroma_qp_offset=-3 / threads=12 / lookahead_threads=1 / sliced_threads=0 / nr=0 / decimate=0 / interlaced=0 / bluray_compat=0 / constrained_intra=0 / bframes=6 / b_pyramid=2 / b_adapt=2 / b_bias=0 / direct=3 / weightb=1 / open_gop=0 / weightp=2 / keyint=240 / keyint_min=23 / scenecut=40 / intra_refresh=0 / rc=2pass / mbtree=0 / bitrate=2649 / ratetol=1.0 / qcomp=0.60 / qpmin=0 / qpmax=69 / qpstep=4 / cplxblur=20.0 / qblur=0.5 / ip_ratio=1.40 / pb_ratio=1.30 / aq=1:1.00
Язык : English
Default : Да
Forced : Нет

Аудио #1
Идентификатор : 2
Формат : AC-3
Формат/Информация : Audio Coding 3
Расширение режима : CM (complete main)
Параметр Endianness формата : Big
Идентификатор кодека : A_AC3
Продолжительность : 1 ч. 34 м.
Вид битрейта : Постоянный
Битрейт : 192 Кбит/сек
Каналы : 2 канала
Расположение каналов : Front: L R
Частота : 48,0 КГц
Битовая глубина : 16 бит
Метод сжатия : С потерями
Размер потока : 130 Мбайт (6%)
Заголовок : MVO (Тв Центр) (AC3 2.0 192 kbps)
Язык : Russian
Default : Да
Forced : Да

Аудио #2
Идентификатор : 3
Формат : AC-3
Формат/Информация : Audio Coding 3
Расширение режима : CM (complete main)
Параметр Endianness формата : Big
Идентификатор кодека : A_AC3
Продолжительность : 1 ч. 34 м.
Вид битрейта : Постоянный
Битрейт : 192 Кбит/сек
Каналы : 2 канала
Расположение каналов : Front: L R
Частота : 48,0 КГц
Битовая глубина : 16 бит
Метод сжатия : С потерями
Размер потока : 130 Мбайт (6%)
Заголовок : AVO (Василий Горчаков) (AC3 2.0 192 kbps)
Язык : Russian
Default : Нет
Forced : Нет

Аудио #3
Идентификатор : 4
Формат : AC-3
Формат/Информация : Audio Coding 3
Расширение режима : CM (complete main)
Параметр Endianness формата : Big
Идентификатор кодека : A_AC3
Продолжительность : 1 ч. 34 м.
Вид битрейта : Постоянный
Битрейт : 192 Кбит/сек
Каналы : 2 канала
Расположение каналов : Front: L R
Частота : 48,0 КГц
Битовая глубина : 16 бит
Метод сжатия : С потерями
Размер потока : 130 Мбайт (6%)
Язык : English
Default : Нет
Forced : Нет

Меню
00:00:00.000 : en:00:00:00.000
00:10:52.777 : en:00:10:52.777
00:24:24.588 : en:00:24:24.588
00:37:04.222 : en:00:37:04.222
00:50:37.868 : en:00:50:37.868
01:00:38.093 : en:01:00:38.093
01:13:57.391 : en:01:13:57.391
01:25:28.498 : en:01:25:28.498

Я не буду рассказывать вам сюжет фильма, так как он тут совершенно но важен, главное здесь атмосфера. Те, кто знаком с творчеством Альберта Пьюна меня поймут. Практически все его фильмы, начиная с Cyborg, и заканчивая его творениями конца 90-х годов сняты в postapocalypse style, т. е. Земля разрушена бесконечными войнами и люди пытаются выжить в условиях полной разрухи. Большинство фильмов были сняты на территории бывшей Югославии, т. к. не нужно было строить декорации, поскольку в то время ещё продолжались военные действия и снимать там фильмы можно было практически бесплатно, чем Пьюн и его команда пользовались много раз.
Итак, Роб Лоу в роли Безумной Шестерки, наркомана который пытается завязать и находит любовь в лице Анны (Ивана Миликевич, которую вы могли видеть в Casino Royale, в роли подруги Ле Шифра), певицы из бара, которая тоже раньше была наркоманкой, но вовремя решила остановиться, а также Айс-Ти, Том Мэтьюс, Марио Ван Пиблз и Берт Рейнольдс, разруливают ситуацию в которой они оказались. В первую очередь, в Crazy Six стоит отметить две великолепные песни написанные Тони Рипаретти, которые можно послушать на ТыТрубе, поскольку данный фильм на dvd достать практически невозможно и он у меня до сих пор на VHS. Эти песни, сопровождают нас на протяжении всего фильма, и создают незабываемое настроение печали и грусти, но с надеждой на лучшее будущее. Главное, что хочется отметить в этом фильме, это прекрасная игра актеров, особенно стоит выделить дуэт Роба Лоу и Иваны Миликевич, играющих людей, которые потерялись в жизни, но отчаянно пытаются выбраться из замкнутого круга.
Я бы рекомендовал этот фильм для тех, кого интересуют в кино не только большие бюджеты и гигантские кассовые сборы, но и фильмы снятые людьми, для которых на первом месте стоит цель донести до людей определенные идеи, и дать им надежду на то, что как бы тяжело не было, всегда есть надежда на лучшее.
Оценка 7 из 10



Скачать Безумная.шестерка.Crazy.Six.(Альберт.Пьюн).[1997.боевик.криминал.HDRip-AVC].[MVO]+[AVO]+[Оригинал].torrent без регистрации
Золото ЗОЛОТАЯ РАЗДАЧА! СКАЧАННОЕ НЕ ЗАСЧИТЫВАЕТСЯ! Золото
Дата: Зарегистрирован   [ Тип: внутренний ] Как тут cкачать?
MAGNET ссылка
MAGNET ссылка


Скачать .torrent

11 KB

Статус: проверено DHT
Скачан: торрент - 126 раз, раздача полностью - 2 раз
Размер: 2,14 GB
Оценка:  - (Голосов: 0)
Поблагодарили: 2
Поделиться ссылкой на эту раздачу с друзьями:
В контактеFacebookОдноклассникиTwitterLivejournalМой МирLiveinternet
 

 
Показать сообщения:    


Вы не можете начинать темы
Вы не можете отвечать на сообщения
Вы не можете редактировать свои сообщения
Вы не можете удалять свои сообщения
Вы не можете голосовать в опросах
Вы не можете прикреплять файлы к сообщениям
Вы можете скачивать файлы