Loading...
Error

Скачать Мастер и Маргарита / Il maestro e Margherita (Александр Петрович) [1972, ужасы, фэнтези, драма, мелодрама, BDRip-AVC] [VO]+[Оригинал] торрент без регистрации

 
Статистика раздачи
Размер:  2,11 GB   |    Скачан:  143 раза
Сидов:  1  [  0 KB/s  ]  
 
Автор Сообщение

Marsianka

[] 

Название: Мастер и Маргарита
Оригинальное название: Il maestro e Margherita
Год выпуска: 1972
Страна: Италия, Югославия
Жанр: ужасы, фэнтези, драма, мелодрама
Продолжительность:
Перевод: Любительский одноголосый

Режиссёр: Александр Петрович

В ролях: Уго Тоньяцци, Мимзи Фармер, Ален Кюни, Велимир 'Бата' Живоинович, Павле Вуйисич, Фабиян Шовагович, Любивое Тадич, Таско Начич, Златко Мадунич, Евген Вербер, Данило 'Бата' Стойкович, Янез Врховец, Васа Пантелич, Александр Джурич, Ева Рас, Бранка Веселинович, Фахро Кониходзич, Сандор Медве, Бранко Плеша, Бранислав Джеринич

Описание: В советской Москве 20-х годов, месте, где никто не верит ни в Бога, ни в Дьявола, драматург Николай Афанасьевич Максудов пишет пьесу «Понтий Пилат». В своём произведении Максудов описал своё виденье библейских событий и о том, в чём заключался конфликт между Пилатом и Иешуа. Такое смелое произведение сильно не понравилось критикам — Латунскому, Ариману и Лавровичу. Отказался поставить пьесу в своём театре и директор Римский. Единственная, кто смогла понять пьесу Николая, — его возлюбленная Маргарита, оценившая гений Мастера. Меж тем, таинственный иностранец Воланд, представляющийся профессором чёрной магии, со своими инфернальными подручными Коровьевым и Азазелло объявляется в Москве и начинает жестоко наказывать всех причастных к гонению Мастера и его ссылке в сумасшедший дом... Фильм по мотивам романа М. А. Булгакова "Мастер и Маргарита".



Качество: BDRip AVC Сравнение с исходником
Формат: MKV
Видео: MPEG-4 AVC, 2652 Кбит/с, 1024x540, 24 кадр/с
Аудио 1: русский, AC3, 192 kbps, 2 ch, 48 kHz [любительский одноголосый]
Аудио 2: итальянский, AC3, 192 kbps, 2 ch, 48 kHz [оригинал]
Общее
Уникальный идентификатор : 173186054266392771693844602681059423610 (0x824A6BB8A4D4AA3281FD6E909277B57A)
Полное имя : D:VideoМастер и Маргарита.1972.BDRip.AVC.mkv
Формат : Matroska
Версия формата : Version 4 / Version 2
Размер файла : 2,11 Гбайт
Продолжительность : 1 ч. 37 м.
Общий поток : 3098 Кбит/сек
Название фильма : BDRip -- STarankov
Дата кодирования : UTC 2015-09-24 11:07:59
Программа кодирования : mkvmerge v8.2.0 ('World of Adventure') 64bit
Библиотека кодирования : libebml v1.3.1 + libmatroska v1.4.2
DURATION : 01:37:36.128000000
NUMBER_OF_FRAMES : 183004
NUMBER_OF_BYTES : 140547072
_STATISTICS_WRITING_APP : mkvmerge v8.2.0 ('World of Adventure') 64bit
_STATISTICS_WRITING_DATE_UTC : 2015-09-24 11:07:59
_STATISTICS_TAGS : BPS DURATION NUMBER_OF_FRAMES NUMBER_OF_BYTES

Видео
Идентификатор : 1
Формат : AVC
Формат/Информация : Advanced Video Codec
Профиль формата : High@L4.1
Параметр CABAC формата : Да
Параметр ReFrames формата : 9 кадров
Идентификатор кодека : V_MPEG4/ISO/AVC
Продолжительность : 1 ч. 37 м.
Битрейт : 2652 Кбит/сек
Ширина : 1024 пикселя
Высота : 540 пикселей
Соотношение сторон : 1,896
Режим частоты кадров : Постоянный
Частота кадров : 24,000 кадра/сек
Цветовое пространство : YUV
Субдискретизация насыщенности : 4:2:0
Битовая глубина : 8 бит
Тип развёртки : Прогрессивная
Бит/(Пиксели*Кадры) : 0.200
Размер потока : 1,81 Гбайт (86%)
Библиотека кодирования : x264 core 146 r2538 121396c
Настройки программы : cabac=1 / ref=9 / deblock=1:-3:-3 / analyse=0x3:0x113 / me=umh / subme=10 / psy=1 / psy_rd=1.00:0.15 / mixed_ref=1 / me_range=32 / chroma_me=1 / trellis=2 / 8x8dct=1 / cqm=0 / deadzone=21,11 / fast_pskip=1 / chroma_qp_offset=-3 / threads=6 / lookahead_threads=1 / sliced_threads=0 / nr=0 / decimate=1 / interlaced=0 / bluray_compat=0 / constrained_intra=0 / bframes=10 / b_pyramid=2 / b_adapt=2 / b_bias=0 / direct=1 / weightb=1 / open_gop=0 / weightp=2 / keyint=230 / keyint_min=23 / scenecut=40 / intra_refresh=0 / rc_lookahead=40 / rc=crf / mbtree=0 / crf=21.6 / qcomp=0.60 / qpmin=0 / qpmax=69 / qpstep=4 / vbv_maxrate=40000 / vbv_bufsize=50000 / crf_max=0.0 / nal_hrd=none / filler=0 / ip_ratio=1.40 / pb_ratio=1.30 / aq=1:1.00
Язык : Italian
Default : Да
Forced : Нет
DURATION : 01:37:36.125000000
NUMBER_OF_FRAMES : 140547
NUMBER_OF_BYTES : 1984957101
_STATISTICS_WRITING_APP : mkvmerge v8.2.0 ('World of Adventure') 64bit
_STATISTICS_WRITING_DATE_UTC : 2015-09-24 11:07:59
_STATISTICS_TAGS : BPS DURATION NUMBER_OF_FRAMES NUMBER_OF_BYTES

Аудио #1
Идентификатор : 2
Формат : AC-3
Формат/Информация : Audio Coding 3
Расширение режима : CM (complete main)
Параметр Endianness формата : Big
Идентификатор кодека : A_AC3
Продолжительность : 1 ч. 37 м.
Вид битрейта : Постоянный
Битрейт : 192 Кбит/сек
Каналы : 2 канала
Расположение каналов : Front: L R
Частота : 48,0 КГц
Метод сжатия : С потерями
Размер потока : 134 Мбайт (6%)
Заголовок : любительский одноголосый
Язык : Russian
Default : Да
Forced : Нет

Аудио #2
Идентификатор : 3
Формат : AC-3
Формат/Информация : Audio Coding 3
Расширение режима : CM (complete main)
Параметр Endianness формата : Big
Идентификатор кодека : A_AC3
Продолжительность : 1 ч. 37 м.
Вид битрейта : Постоянный
Битрейт : 192 Кбит/сек
Каналы : 2 канала
Расположение каналов : Front: L R
Частота : 48,0 КГц
Метод сжатия : С потерями
Размер потока : 134 Мбайт (6%)
Заголовок : Original
Язык : Italian
Default : Нет
Forced : Нет



Скачать Мастер.и.Маргарита.Il.maestro.e.Margherita.(Александр.Петрович).[1972.ужасы.фэнтези.драма.мелодрама.BDRip-AVC].[VO]+[Оригинал].torrent без регистрации
Золото ЗОЛОТАЯ РАЗДАЧА! СКАЧАННОЕ НЕ ЗАСЧИТЫВАЕТСЯ! Золото
Дата: Зарегистрирован   [ Тип: внутренний ] Как тут cкачать?
MAGNET ссылка
MAGNET ссылка


Скачать .torrent

11 KB

Статус: проверено DHT
Скачан: торрент - 143 раз, раздача полностью - 61 раз
Размер: 2,11 GB
Оценка:  - (Голосов: 0)
Поблагодарили: 3
Поделиться ссылкой на эту раздачу с друзьями:
В контактеFacebookОдноклассникиTwitterLivejournalМой МирLiveinternet
 

 
Показать сообщения:    


Вы не можете начинать темы
Вы не можете отвечать на сообщения
Вы не можете редактировать свои сообщения
Вы не можете удалять свои сообщения
Вы не можете голосовать в опросах
Вы не можете прикреплять файлы к сообщениям
Вы можете скачивать файлы