Loading...
Error

Скачать Женщина в красном / The Woman in Red (Джин Уайлдер) [1984, комедия, DVDRip] [MVO]+[AVO]+[Оригинал] торрент без регистрации

 
Статистика раздачи
Размер:  1,46 GB   |    Скачан:  86 раз

Полного источника не было: 22 минуты

 
Автор Сообщение

Marsianka

[] 



Страна: США
Производство: Orion Pictures Corporation
Жанр: комедия
Год выпуска: 1984

Продолжительность: 01:26:34

Перевод: Профессиональный многоголосый, авторский

Оригинальная аудиодорожка: Английская

Режиссер: Джин Уайлдер

В ролях: Джин Уайлдер, Чарльз Гродин, Джозеф Болонья, Джудит Айви, Майкл Хаддлстон, Келли ЛеБрок, Гилда Рэднер, Кайл Т. Хеффнер, Майкл Зорек, Билли Бек, Кира Стемпел, Робин Игнико, Виола Кейтс Стимпсон, Дэнни Уэллс

Описание: Однажды Тедди оказывается в одних трусах на карнизе за окном спальни красотки, и все это снимает телевидение. Как он оказался в этой нелепой ситуации? Всему виной сногсшибательная красавица Шарлотта, женщина в красном платье. У Тедди Пирса, есть все что нужно для счастливой жизни — милая жена, дети, хорошая работа, друзья. Все бы хорошо, но он отчаянно скучает и переживает кризис среднего возраста. Увидев сногсшибательную красотку в развевающемся красном платье, он безумно влюбляется в нее и теперь единственная цель для него — забраться в ее постель. Все свое свободное время он тайно преследует предмет своей страсти, пытаясь во чтобы не стало осуществить задуманное. Его друзья пускаются во все тяжкие, чтобы прикрыть его, от исполнения заветного желания отделяет одно мгновение, но…



Исходник: DVD5 R1

Тип релиза: DVDRip

Контейнер: AVI

Видео: XviD, 1825 Кбит/с, 720х400
Аудио: Русский, английский (АС3, 2 ch, 192 Кбит/с)

1.Профессиональный многоголосый
2.Авторский (Михалев)
3.Английский
Общее
Полное имя : D:1АААЖенщина в красном.avi
Формат : AVI
Формат/Информация : Audio Video Interleave
Размер файла : 1,46 Гбайт
Продолжительность : 1 ч. 26 м.
Общий поток : 2420 Кбит/сек
Программа кодирования : VirtualDubMod 1.5.10.2 (build 2540/release)
Библиотека кодирования : VirtualDubMod build 2540/release

Видео
Идентификатор : 0
Формат : MPEG-4 Visual
Профиль формата : Advanced Simple@L5
Параметр BVOP формата : 2
Параметр QPel формата : Нет
Параметр GMC формата : Без точки перехода
Параметр матрицы формата : Default (MPEG)
Идентификатор кодека : XVID
Идентификатор кодека/Подсказка : XviD
Продолжительность : 1 ч. 26 м.
Битрейт : 1825 Кбит/сек
Ширина : 720 пикселей
Высота : 400 пикселей
Соотношение сторон : 16:9
Частота кадров : 23,976 кадра/сек
Цветовое пространство : YUV
Субдискретизация насыщенности : 4:2:0
Битовая глубина : 8 бит
Тип развёртки : Прогрессивная
Метод сжатия : С потерями
Бит/(Пиксели*Кадры) : 0.264
Размер потока : 1,10 Гбайт (75%)
Библиотека кодирования : XviD 1.2.1 (UTC 2008-12-04)

Аудио #1
Идентификатор : 1
Формат : AC-3
Формат/Информация : Audio Coding 3
Расширение режима : CM (complete main)
Параметр Endianness формата : Big
Идентификатор кодека : 2000
Продолжительность : 1 ч. 26 м.
Вид битрейта : Постоянный
Битрейт : 192 Кбит/сек
Каналы : 2 канала
Расположение каналов : Front: L R
Частота : 48,0 КГц
Битовая глубина : 16 бит
Метод сжатия : С потерями
Размер потока : 119 Мбайт (8%)
Выравнивание : Разделение по промежуткам
Продолжительность промежутка : 42 мс. (1,00 видеокадр)
Время предзагрузки промежутка : 500 мс.

Аудио #2
Идентификатор : 2
Формат : AC-3
Формат/Информация : Audio Coding 3
Профиль формата : Dolby Digital
Расширение режима : CM (complete main)
Параметр Endianness формата : Big
Идентификатор кодека : 2000
Продолжительность : 1 ч. 26 м.
Вид битрейта : Постоянный
Битрейт : 192 Кбит/сек
Каналы : 2 канала
Расположение каналов : Front: L R
Частота : 48,0 КГц
Битовая глубина : 16 бит
Метод сжатия : С потерями
Размер потока : 119 Мбайт (8%)
Выравнивание : Разделение по промежуткам
Продолжительность промежутка : 42 мс. (1,00 видеокадр)
Время предзагрузки промежутка : 500 мс.

Аудио #3
Идентификатор : 3
Формат : AC-3
Формат/Информация : Audio Coding 3
Профиль формата : Dolby Digital
Расширение режима : CM (complete main)
Параметр Endianness формата : Big
Идентификатор кодека : 2000
Продолжительность : 1 ч. 26 м.
Вид битрейта : Постоянный
Битрейт : 192 Кбит/сек
Каналы : 2 канала
Расположение каналов : Front: L R
Частота : 48,0 КГц
Битовая глубина : 16 бит
Метод сжатия : С потерями
Размер потока : 119 Мбайт (8%)
Выравнивание : Разделение по промежуткам
Продолжительность промежутка : 42 мс. (1,00 видеокадр)
Время предзагрузки промежутка : 500 мс.
Релиз группа:
Автор рипа:



Скачать Женщина.в.красном.The.Woman.in.Red.(Джин.Уайлдер).[1984.комедия.DVDRip].[MVO]+[AVO]+[Оригинал].torrent без регистрации
Золото ЗОЛОТАЯ РАЗДАЧА! СКАЧАННОЕ НЕ ЗАСЧИТЫВАЕТСЯ! Золото
Дата: Зарегистрирован   [ Тип: внутренний ] Как тут cкачать?
MAGNET ссылка
MAGNET ссылка


Скачать .torrent

15 KB

Статус: проверено DHT
Скачан: торрент - 86 раз, раздача полностью - 2 раз
Размер: 1,46 GB
Оценка:  - (Голосов: 0)
Поблагодарили: 0
Поделиться ссылкой на эту раздачу с друзьями:
В контактеFacebookОдноклассникиTwitterLivejournalМой МирLiveinternet
 

 
Показать сообщения:    


Вы не можете начинать темы
Вы не можете отвечать на сообщения
Вы не можете редактировать свои сообщения
Вы не можете удалять свои сообщения
Вы не можете голосовать в опросах
Вы не можете прикреплять файлы к сообщениям
Вы можете скачивать файлы