Loading...
Error

Скачать Не будите спящую собаку / Flirting with Disaster (Дэвид О. Расселл) [1996, комедия, BDRip-AVC] [MVO]+[Оригинал]+[Sub] торрент без регистрации

 
Статистика раздачи
Размер:  2,4 GB   |    Скачан:  83 раза
Сидов:  1  [  0 KB/s  ]  
 
Автор Сообщение

Marsianka

[] 

Название: Не будите спящую собаку
Оригинальное название: Flirting with Disaster
Год выпуска: 1996
Страна: США
Жанр: комедия
Продолжительность: 01:32:48
Перевод: профессиональный многоголосый

Режиссёр: Дэвид О. Расселл

В ролях: Бен Стиллер, Патриция Аркетт, Теа Леони, Алан Алда, Мэри Тайлер Мур, Джордж Сигал, Лили Томлин, Джош Бролин, Ричард Дженкинс, Селия Уэстон, Гленн Фицджералд, Бет Остроски, Синтия Ламонтейн, Дэвид Патрик Келли, Джон Форд Нунан, Надя Дажани, Дон Крич, Кларк Биттнер, Тони Крук, Джонатан Тига Кук, Стив Морено, Тори Дэвис, Шоун Майкл Ховард, Мишель Эммон, Сюзанн Снайдер

Описание: Мел Коплин, отец четырёхмесячного младенца, живёт в Нью-Йорке. Вдруг ему приходит в голову, что он никак не может дать имя своему ребёнку, не разыскав своих настоящих биологических родителей. Несмотря на яростные возражения очень шумных "приёмных" родителей, Мел, его несколько «отмороженная» жена Нэнси и младенец летят в Сан-Диего вместе с врачом-психиатром Тиной из агенства по усыновлению, вечно нервничающей и скандалящей из-за предстоящего ей развода...



Качество: BDRip AVC Сравнение с исходником
Формат: MKV
Видео: MPEG-4 AVC, 2737 Кбит/с, 1024х554, 24 кадра/с
Аудио 1: русский, AC3, 448 kbps, 6 ch, 48 kHz [профессиональный многоголосый]
Аудио 2: английский, AC3, 448 kbps, 6 ch, 48 kHz [оригинал]
Субтитры: русские
Общее
Уникальный идентификатор : 204142221571749097557151367239631776921 (0x99945C9B3F27518D96025F2F29162C99)
Полное имя : D:VideoНе будите спящую собаку.1996.BDRip.AVC.mkv
Формат : Matroska
Версия формата : Version 4 / Version 2
Размер файла : 2,40 Гбайт
Продолжительность : 1 ч. 32 м.
Общий поток : 3707 Кбит/сек
Название фильма : BDRip -- STarankov
Дата кодирования : UTC 2015-09-28 10:54:16
Программа кодирования : mkvmerge v8.2.0 ('World of Adventure') 64bit
Библиотека кодирования : libebml v1.3.1 + libmatroska v1.4.2
DURATION : 01:27:05.499000000
NUMBER_OF_FRAMES : 1669
NUMBER_OF_BYTES : 123344
_STATISTICS_WRITING_APP : mkvmerge v8.2.0 ('World of Adventure') 64bit
_STATISTICS_WRITING_DATE_UTC : 2015-09-28 10:54:16
_STATISTICS_TAGS : BPS DURATION NUMBER_OF_FRAMES NUMBER_OF_BYTES

Видео
Идентификатор : 1
Формат : AVC
Формат/Информация : Advanced Video Codec
Профиль формата : High@L4.1
Параметр CABAC формата : Да
Параметр ReFrames формата : 9 кадров
Идентификатор кодека : V_MPEG4/ISO/AVC
Продолжительность : 1 ч. 32 м.
Битрейт : 2737 Кбит/сек
Ширина : 1024 пикселя
Высота : 554 пикселя
Соотношение сторон : 1,85:1
Режим частоты кадров : Постоянный
Частота кадров : 24,000 кадра/сек
Цветовое пространство : YUV
Субдискретизация насыщенности : 4:2:0
Битовая глубина : 8 бит
Тип развёртки : Прогрессивная
Бит/(Пиксели*Кадры) : 0.201
Размер потока : 1,77 Гбайт (74%)
Библиотека кодирования : x264 core 146 r2538 121396c
Настройки программы : cabac=1 / ref=9 / deblock=1:-3:-3 / analyse=0x3:0x113 / me=umh / subme=10 / psy=1 / psy_rd=1.00:0.15 / mixed_ref=1 / me_range=32 / chroma_me=1 / trellis=2 / 8x8dct=1 / cqm=0 / deadzone=21,11 / fast_pskip=1 / chroma_qp_offset=-3 / threads=6 / lookahead_threads=1 / sliced_threads=0 / nr=0 / decimate=1 / interlaced=0 / bluray_compat=0 / constrained_intra=0 / bframes=12 / b_pyramid=2 / b_adapt=2 / b_bias=0 / direct=1 / weightb=1 / open_gop=0 / weightp=2 / keyint=230 / keyint_min=23 / scenecut=40 / intra_refresh=0 / rc_lookahead=40 / rc=crf / mbtree=0 / crf=19.1 / qcomp=0.60 / qpmin=0 / qpmax=69 / qpstep=4 / vbv_maxrate=40000 / vbv_bufsize=50000 / crf_max=0.0 / nal_hrd=none / filler=0 / ip_ratio=1.40 / pb_ratio=1.30 / aq=1:1.00
Язык : English
Default : Да
Forced : Нет
DURATION : 01:32:48.459000000
NUMBER_OF_FRAMES : 133643
NUMBER_OF_BYTES : 1954785593
_STATISTICS_WRITING_APP : mkvmerge v8.2.0 ('World of Adventure') 64bit
_STATISTICS_WRITING_DATE_UTC : 2015-09-28 10:54:16
_STATISTICS_TAGS : BPS DURATION NUMBER_OF_FRAMES NUMBER_OF_BYTES

Аудио #1
Идентификатор : 2
Формат : AC-3
Формат/Информация : Audio Coding 3
Расширение режима : CM (complete main)
Параметр Endianness формата : Big
Идентификатор кодека : A_AC3
Продолжительность : 1 ч. 32 м.
Вид битрейта : Постоянный
Битрейт : 448 Кбит/сек
Каналы : 6 каналов
Расположение каналов : Front: L C R, Side: L R, LFE
Частота : 48,0 КГц
Метод сжатия : С потерями
Размер потока : 297 Мбайт (12%)
Заголовок : MVO
Язык : Russian
Default : Да
Forced : Нет

Аудио #2
Идентификатор : 3
Формат : AC-3
Формат/Информация : Audio Coding 3
Расширение режима : CM (complete main)
Параметр Endianness формата : Big
Идентификатор кодека : A_AC3
Продолжительность : 1 ч. 32 м.
Вид битрейта : Постоянный
Битрейт : 448 Кбит/сек
Каналы : 6 каналов
Расположение каналов : Front: L C R, Side: L R, LFE
Частота : 48,0 КГц
Метод сжатия : С потерями
Размер потока : 297 Мбайт (12%)
Заголовок : Original
Язык : English
Default : Нет
Forced : Нет

Текст
Идентификатор : 4
Формат : UTF-8
Идентификатор кодека : S_TEXT/UTF8
Идентификатор кодека/Информация : UTF-8 Plain Text
Заголовок : русский
Язык : Russian
Default : Нет
Forced : Нет



Скачать Не.будите.спящую.собаку.Flirting.with.Disaster.(Дэвид.О.Расселл).[1996.комедия.BDRip-AVC].[MVO]+[Оригинал]+[Sub].torrent без регистрации
Золото ЗОЛОТАЯ РАЗДАЧА! СКАЧАННОЕ НЕ ЗАСЧИТЫВАЕТСЯ! Золото
Дата: Зарегистрирован   [ Тип: внутренний ] Как тут cкачать?
MAGNET ссылка
MAGNET ссылка


Скачать .torrent

13 KB

Статус: проверено DHT
Скачан: торрент - 83 раз, раздача полностью - 16 раз
Размер: 2,4 GB
Оценка:  - (Голосов: 0)
Поблагодарили: 2
Поделиться ссылкой на эту раздачу с друзьями:
В контактеFacebookОдноклассникиTwitterLivejournalМой МирLiveinternet
 

 
Показать сообщения:    


Вы не можете начинать темы
Вы не можете отвечать на сообщения
Вы не можете редактировать свои сообщения
Вы не можете удалять свои сообщения
Вы не можете голосовать в опросах
Вы не можете прикреплять файлы к сообщениям
Вы можете скачивать файлы