Loading...
Error

Скачать Нация Z / Z Nation (сезон 02 (Джон Хайамс и др.) [2015, Ужасы, фантастика, боевик, драма, WEB-DL 1080p] [MVO (OmskBird Records)]+[Original]+[Rus Subs] торрент без регистрации

 
Статистика раздачи
Размер:  26,69 GB   |    Скачан:  264 раза
Сидов:  1  [  0 KB/s  ]  
 
Автор Сообщение

МихаНЕзатор

[] 


Нация Z / Z Nation


Год выпуска: 2015
Страна: США
Жанр: Ужасы, фантастика, боевик, драма
Продолжительность: ~ 00:45:00
Перевод: Любительский (многоголосый закадровый) «OmskBird Records[/size]»
Режиссёр: Джон Хайамс, Тим Эндрю, Луис Прието

В ролях: Хэролд Перрино, Том Эверетт Скотт, ДиДжей Куаллс, Майкл Уэлш, Келлита Смит, Анастасия Баранова, Расселл Ходжкинсон, Кит Аллан и другие

Описание: Спустя три года после того, как вирус зомби распространился и выпотрошил всю страну, команда героев должна перевезти единственного известного оставшегося в живых от действия чумы из Нью-Йорка в Калифорнию, где последняя функционирующая вирусная лаборатория ждет его крови. Хотя антитела, которые он несет, являются последней надеждой мира получить вакцину, он скрывает мрачную тайну, которая угрожает им всем. Выживание человечества под угрозой, когда разношерстная группа предпринимает путешествие длиной в пять тысяч километров по опустошенной, пост-апокалиптической Америке.



Работа со звуком: Re-L Mayer
Качество: WEB-DL 1080p
Контейнер: MKV
Видео: H.264 / AVC, ~ 9249 Kbps / 1920x1080p / 23.976 fps / Level 4.0;
Аудио: Dolby Digital 5.1 AC3, 48000Hz, 6 channels, 384.00 kbps avg |NewStudio|;
Аудио: Dolby Digital 5.1 AC3, 48000Hz, 6 channels, 384.00 kbps avg |Original|.
Субтитры: Русские — OmskBird Records (1, 3), Vito_Feed (2 серия).

АНОНСЫ ПОПУЛЯРНЫХ РАЗДАЧ


Торрент обновлён, добавлена 15-я серия!

01 — Мёрфи;
02 — Белый свет;
03 — Дорога зомби;
04 — Партия 47;
05 — Зомби-дитя;
06 — Зомби-папа;
07 — Вниз по Миссисипи;
08 — Коллекционер;
09 — Розвелл;
10 — Мы были далеко не в Гранд-Каньон;
11 — Корпоративный семинар;
12 — Партия с «Зеро»;
13 — Прощайте;
14 — День первый;
15 — Все хорошее должно когда-нибудь закончится.
General
Unique ID : 187049723077848562268613474380349464712 (0x8CB8775DE580F887A4BB2FCCA7786088)
Complete name : E:\Z Nation - S02\Z.Nation.s02e01.WEBDL.1080p.Rus.Eng-OmskBird.mkv
Format : Matroska
Format version : Version 4 / Version 2
File size : 1.78 GiB
Duration : 44mn 46s
Overall bit rate : 5 699 Kbps
Encoded date : UTC 2015-09-13 10:35:23
Writing application : mkvmerge v6.3.0 ('You can't stop me!') built on Jun 28 2013 20:09:41
Writing library : libebml v1.3.0 + libmatroska v1.4.0
DURATION : 00:43:02.016000000
NUMBER_OF_FRAMES : 80688
NUMBER_OF_BYTES : 123936768
_STATISTICS_WRITING_APP : mkvmerge v8.3.0 ('Over the Horizon') 64bit
_STATISTICS_WRITING_DATE_UT : 2015-09-12 19:09:44
_STATISTICS_TAGS : BPS DURATION NUMBER_OF_FRAMES NUMBER_OF_BYTES
Video
ID : 1
Format : AVC
Format/Info : Advanced Video Codec
Format profile : High@L4
Format settings, CABAC : Yes
Format settings, ReFrames : 4 frames
Codec ID : V_MPEG4/ISO/AVC
Duration : 44mn 46s
Bit rate : 4 818 Kbps
Width : 1 920 pixels
Height : 1 080 pixels
Display aspect ratio : 16:9
Frame rate mode : Constant
Frame rate : 23.976 fps
Color space : YUV
Chroma subsampling : 4:2:0
Bit depth : 8 bits
Scan type : Progressive
Bits/(Pixel*Frame) : 0.097
Stream size : 1.51 GiB (85%)
Language : English
Default : Yes
Forced : No
Color range : Limited
Color primaries : BT.709
Transfer characteristics : BT.709
Matrix coefficients : BT.709
Audio #1
ID : 2
Format : AC-3
Format/Info : Audio Coding 3
Mode extension : CM (complete main)
Format settings, Endianness : Big
Codec ID : A_AC3
Duration : 44mn 46s
Bit rate mode : Constant
Bit rate : 384 Kbps
Channel(s) : 6 channels
Channel positions : Front: L C R, Side: L R, LFE
Sampling rate : 48.0 KHz
Compression mode : Lossy
Stream size : 123 MiB (7%)
Title : «OmskBird records»
Language : Russian
Default : Yes
Forced : No
Audio #2
ID : 3
Format : AC-3
Format/Info : Audio Coding 3
Mode extension : CM (complete main)
Format settings, Endianness : Big
Codec ID : A_AC3
Duration : 44mn 46s
Bit rate mode : Constant
Bit rate : 384 Kbps
Channel(s) : 6 channels
Channel positions : Front: L C R, Side: L R, LFE
Sampling rate : 48.0 KHz
Compression mode : Lossy
Stream size : 123 MiB (7%)
Language : English
Default : No
Forced : No
Text
ID : 4
Format : UTF-8
Codec ID : S_TEXT/UTF8
Codec ID/Info : UTF-8 Plain Text
Title : «OmskBird records»
Language : Russian
Default : No
Forced : No
Внимание! Раздача ведётся путём добавления новых серий; при каждом добавлении создаётся новый торрент. Чтобы начать докачку новой серии, пользователям необходимо сделать следующее:
(1) остановить скачивание,
(2) удалить старый торрент у себя из клиента (старые серии удалять не надо),
(3) скачать новый торрент и запустить его у себя в клиенте вместо старого, при этом указать клиенту путь в старую папку куда и должно происходить скачивание новых серий.
Ваш клиент при этом должен произвести хеширование (проверку) старой папки (если не производит сам - помогите ему сделать это), и будет докачивать только те серии которых у вас ещё нет. Старые серии при этом не удаляются, а продолжают раздаваться!
Eсли вы уже удалили старые серии, то предотвратить повторную закачку старых серий можно, отжав галочку в соответствующих местах при запуске нового торрента. По возможности, желательно не удалять старые серии как можно дольше чтобы релизёр не столько продолжал раздавать старые серии, а смог сконцентрироваться на новых.



Скачать Нация.Z.Z.Nation.(сезон.02.(Джон.Хайамс.и.др.).[2015.Ужасы.фантастика.боевик.драма.WEB-DL.1080p].[MVO.(OmskBird.Records)]+[Original]+[Rus.Subs].torrent без регистрации
Золото ЗОЛОТАЯ РАЗДАЧА! СКАЧАННОЕ НЕ ЗАСЧИТЫВАЕТСЯ! Золото
Дата: Зарегистрирован   [ Тип: внутренний ] Как тут cкачать?
MAGNET ссылка
MAGNET ссылка


Скачать .torrent

68 KB

Статус: проверено DHT
Скачан: торрент - 264 раз, раздача полностью - 0 раз
Размер: 26,69 GB
Оценка:  - (Голосов: 0)
Поблагодарили: 0
Поделиться ссылкой на эту раздачу с друзьями:
В контактеFacebookОдноклассникиTwitterLivejournalМой МирLiveinternet
 

 
Показать сообщения:    


Вы не можете начинать темы
Вы не можете отвечать на сообщения
Вы не можете редактировать свои сообщения
Вы не можете удалять свои сообщения
Вы не можете голосовать в опросах
Вы не можете прикреплять файлы к сообщениям
Вы можете скачивать файлы