Loading...
Error

Скачать Зло Франкенштейна / The Evil of Frankenstein (Фредди Фрэнсис) [1964, ужасы, фантастика, BDRip-AVC] [MVO]+[Оригинал]+[Sub] торрент без регистрации

 
Статистика раздачи
Размер:  2,76 GB   |    Скачан:  76 раз
Сидов:  1  [  0 KB/s  ]  
 
Автор Сообщение

Marsianka

[] 

Зло Франкенштейна / The Evil of Frankenstein

Страна: Великобритания
Жанр: ужасы, фантастика
Год выпуска: 1964
Продолжительность: 01:26:40

Перевод: Профессиональный (многоголосый закадровый) | СТС
Cубтитры: английские
Оригинальная аудиодорожка: английский

Режиссер: Фредди Фрэнсис / Freddie Francis

В ролях: Питер Кушинг, Питер Вудторп, Дункан Ламонт, Шандор Элеш, Кэти Вайлд, Дэвид Хатчесон, Джеймс Максвелл, Ховард Гурни, Энтони Блэкшоу, Дэвид Конвил

Описание: Прогнанный священником из своего поместья, где он проводил эксперименты, барон Франкенштейн возвращается в Карлштадт и обнаруживает замерзшего монстра. Барону удается вернуть его к жизни. Но монстр, который может существовать только под гипнозом профессора Золтана, поворачивается против своего создателя...



Исходник: The Evil of Frankenstein 1964 1080p Blu-ray AVC LPCM 2.0 @ HDBits
Качество видео: BDRip-AVC | sample
Формат видео: MKV
Видео кодек: x264
Видео: AVC 1056x572 (1.85:1), 23.976 fps, ~4170 Kbps, 0.29 bit/pixel
Аудио #1: Russian AC3 2ch 48kHz 192Kbps | MVO СТС
Аудио #2: English AC3 2ch 48kHz 192Kbps | Original
Формат субтитров: softsub (SRT)
Главы: есть, подписаны

General
Complete name : E:...The.Evil.of.Frankenstein.1964.BDRip.x264.DD2.0.Rus.Eng-E76.mkv
Format : Matroska
Format version : Version 2
File size : 2.76 GiB
Duration : 1h 26mn
Overall bit rate : 4 559 Kbps
Movie name : The.Evil.of.Frankenstein.1964.BDRip.x264.DD2.0.Rus.Eng-E76
Encoded date : UTC 2014-02-02 04:50:11
Writing application : mkvmerge v6.5.0 ('Isn't she lovely') built on Oct 20 2013 12:50:05
Writing library : libebml v1.3.0 + libmatroska v1.4.1

Video
ID : 1
Format : AVC
Format/Info : Advanced Video Codec
Format profile : High@L4.1
Format settings, CABAC : Yes
Format settings, ReFrames : 12 frames
Codec ID : V_MPEG4/ISO/AVC
Bit rate : 4 084 Kbps
Width : 1 056 pixels
Height : 572 pixels
Display aspect ratio : 1.85:1
Frame rate mode : Constant
Frame rate : 23.976 fps
Color space : YUV
Chroma subsampling : 4:2:0
Bit depth : 8 bits
Scan type : Progressive
Title : Encode by E76
Writing library : x264 core 140 r2377kMod 1ca7bb9
Encoding settings : cabac=1 / ref=12 / deblock=1:-3:-3 / analyse=0x3:0x113 / me=umh / subme=10 / psy=1 / fade_compensate=0.00 / psy_rd=1.00:0.10 / mixed_ref=1 / me_range=32 / chroma_me=1 / trellis=2 / 8x8dct=1 / cqm=0 / deadzone=21,11 / fast_pskip=1 / chroma_qp_offset=-3 / threads=6 / lookahead_threads=1 / sliced_threads=0 / nr=0 / decimate=1 / interlaced=0 / bluray_compat=0 / constrained_intra=0 / fgo=0 / bframes=14 / b_pyramid=2 / b_adapt=2 / b_bias=0 / direct=1 / weightb=1 / open_gop=0 / weightp=2 / keyint=240 / keyint_min=23 / scenecut=40 / intra_refresh=0 / rc_lookahead=0 / rc=crf / mbtree=0 / crf=19.3000 / qcomp=0.70 / qpmin=0 / qpmax=69 / qpstep=4 / vbv_maxrate=50000 / vbv_bufsize=62500 / crf_max=0.0 / nal_hrd=none / filler=0 / ip_ratio=1.40 / pb_ratio=1.10 / aq=1:0.80
Language : English
Default : Yes
Forced : No
Matrix coefficients : BT.709

Audio #1
ID : 2
Format : AC-3
Format/Info : Audio Coding 3
Mode extension : CM (complete main)
Format settings, Endianness : Big
Codec ID : A_AC3
Duration : 1h 26mn
Bit rate mode : Constant
Bit rate : 192 Kbps
Channel(s) : 2 channels
Channel positions : Front: L R
Sampling rate : 48.0 KHz
Bit depth : 16 bits
Compression mode : Lossy
Stream size : 119 MiB (4%)
Title : MVO CTC
Language : Russian
Default : Yes
Forced : No

Audio #2
ID : 3
Format : AC-3
Format/Info : Audio Coding 3
Mode extension : CM (complete main)
Format settings, Endianness : Big
Codec ID : A_AC3
Duration : 1h 26mn
Bit rate mode : Constant
Bit rate : 192 Kbps
Channel(s) : 2 channels
Channel positions : Front: L R
Sampling rate : 48.0 KHz
Bit depth : 16 bits
Compression mode : Lossy
Stream size : 119 MiB (4%)
Title : Original
Language : English
Default : No
Forced : No

Text
ID : 4
Format : UTF-8
Codec ID : S_TEXT/UTF8
Codec ID/Info : UTF-8 Plain Text
Language : English
Default : No
Forced : No

Menu
00:00:00.000 : en:A BODY
00:10:06.314 : en:CARNIVAL
00:16:12.847 : en:SOLUTION
00:23:50.304 : en:APPETITE
00:29:37.150 : en:ZOLTAN
00:39:09.514 : en:PRESERVED
00:52:59.968 : en:WAKE HIM
01:03:05.198 : en:PUNSH HIM
01:09:15.443 : en:GO BACK
01:15:34.071 : en:BURN HIM
01:20:17.896 : en:DESTRUCTION
01:25:50.604 : en:END CREDITS

--[Information] [31.01.2014 21:00:59] x264 [info]: frame I:735 Avg QP:17.22 size: 81537
--[Information] [31.01.2014 21:00:59] x264 [info]: frame P:21939 Avg QP:19.44 size: 31843
--[Information] [31.01.2014 21:00:59] x264 [info]: frame B:102007 Avg QP:20.34 size: 19157
--[Information] [31.01.2014 21:00:59] x264 [info]: consecutive B-frames: 0.8% 0.6% 3.1% 11.3% 13.0% 47.1% 7.8% 2.6% 5.3% 1.1% 1.8% 3.1% 1.1% 0.3% 1.0%
--[Information] [31.01.2014 21:00:59] x264 [info]: kb/s:4173.11



Скачать Зло.Франкенштейна.The.Evil.of.Frankenstein.(Фредди.Фрэнсис).[1964.ужасы.фантастика.BDRip-AVC].[MVO]+[Оригинал]+[Sub].torrent без регистрации
Золото ЗОЛОТАЯ РАЗДАЧА! СКАЧАННОЕ НЕ ЗАСЧИТЫВАЕТСЯ! Золото
Дата: Зарегистрирован   [ Тип: внутренний ] Как тут cкачать?
MAGNET ссылка
MAGNET ссылка


Скачать .torrent

15 KB

Статус: проверено DHT
Скачан: торрент - 76 раз, раздача полностью - 1 раз
Размер: 2,76 GB
Оценка:  - (Голосов: 0)
Поблагодарили: 0
Поделиться ссылкой на эту раздачу с друзьями:
В контактеFacebookОдноклассникиTwitterLivejournalМой МирLiveinternet
 

 
Показать сообщения:    


Вы не можете начинать темы
Вы не можете отвечать на сообщения
Вы не можете редактировать свои сообщения
Вы не можете удалять свои сообщения
Вы не можете голосовать в опросах
Вы не можете прикреплять файлы к сообщениям
Вы можете скачивать файлы