Loading...
Error

Скачать Посторонний (Александр Котт) [2007, Драма, HDTVRip] торрент без регистрации

 
Статистика раздачи
Размер:  746 MB   |    Скачан:  71 раз

Полного источника не было: 11 месяцев

 
Автор Сообщение

Шкипер

[] 


Посторонний


Год выпуска: 2007
Выпущено: Россия (Студия: Кинослово)
Жанр: Драма
Продолжительность: 01:35:16
Перевод: Не требуется
Субтитры: Отсутствует

Режиссер: Александр Котт

В ролях: Андрей Филиппак, Анастасия Мельникова, Виктория Исакова, Даниил Спиваковский, Митя Лабуш, Мария Буравлева, Владимир Носик, Тимофей Трибунцев, Светлана Чуйкина

Описание: Мужчина около сорока лет приходит в себя в лесу, заваленный в яме ветками, грязный и окровавленный. Блуждая по лесу, он набрел на домик путевой обходчицы Татьяны, которая приютила его. Он ничего не помнит, кто он и что с ним случилось. Татьяна решает называть его Иваном. Между ними возникают близкие отношения. Но вскоре появляется другая женщина - Мария, утверждающая, что она - жена Ивана, которого на самом деле зовут Александр Ремезов…









Качество: HDTVRip
Формат: AVI
Видео кодек: XviD
Аудио кодек: MP3
Видео: 608x336 (1.81:1), 25 fps, XviD build 73 ~956 kbps avg, 0.19 bit/pixel
Аудио: 48 kHz, MPEG Layer 3, 2 ch, ~128.00 kbps avg

General
Complete name : D:ТоррентыМои рипыПостороннийPostoronnij.2007.HDTVRip.shkiper.avi
Format : AVI
Format/Info : Audio Video Interleave
File size : 746 MiB
Duration : 1h 35mn
Overall bit rate : 1 095 Kbps
Writing application : VirtualDubMod 1.5.10.3 | www.virtualdub-fr.org || (build 2550/release)
Writing library : VirtualDubMod build 2550/release

Video
ID : 0
Format : MPEG-4 Visual
Format profile : Advanced Simple@L5
Format settings, BVOP : 1
Format settings, QPel : No
Format settings, GMC : No warppoints
Format settings, Matrix : Custom
Codec ID : XVID
Codec ID/Hint : XviD
Duration : 1h 35mn
Bit rate : 957 Kbps
Width : 608 pixels
Height : 336 pixels
Display aspect ratio : 16:9
Frame rate : 25.000 fps
Color space : YUV
Chroma subsampling : 4:2:0
Bit depth : 8 bits
Scan type : Progressive
Compression mode : Lossy
Bits/(Pixel*Frame) : 0.187
Stream size : 652 MiB (87%)
Writing library : XviD 73

Audio
ID : 1
Format : MPEG Audio
Format version : Version 1
Format profile : Layer 3
Mode : Joint stereo
Mode extension : MS Stereo
Codec ID : 55
Codec ID/Hint : MP3
Duration : 1h 35mn
Bit rate mode : Constant
Bit rate : 128 Kbps
Channel(s) : 2 channels
Sampling rate : 48.0 KHz
Compression mode : Lossy
Stream size : 87.2 MiB (12%)
Alignment : Aligned on interleaves
Interleave, duration : 40 ms (1.00 video frame)
Interleave, preload duration : 504 ms
Writing library : LAME3.99r
Encoding settings : -m j -V 4 -q 2 -lowpass 17 -b 128





Скачать Посторонний.(Александр.Котт).[2007.Драма.HDTVRip].torrent без регистрации
Золото ЗОЛОТАЯ РАЗДАЧА! СКАЧАННОЕ НЕ ЗАСЧИТЫВАЕТСЯ! Золото
Дата: Зарегистрирован   [ Тип: внутренний ] Как тут cкачать?
MAGNET ссылка
MAGNET ссылка


Скачать .torrent

15 KB

Статус: проверено
Скачан: торрент - 71 раз, раздача полностью - 3 раз
Размер: 746 MB
Оценка:  5 (Голосов: 2)
Поблагодарили: 0
Поделиться ссылкой на эту раздачу с друзьями:
В контактеFacebookОдноклассникиTwitterLivejournalМой МирLiveinternet
 

 
Показать сообщения:    


Вы не можете начинать темы
Вы не можете отвечать на сообщения
Вы не можете редактировать свои сообщения
Вы не можете удалять свои сообщения
Вы не можете голосовать в опросах
Вы не можете прикреплять файлы к сообщениям
Вы можете скачивать файлы