Loading...
Error

Скачать Жадность / Greedy (Джонатан Линн) [1994, комедия, HDRip-AVC] [MVO]x2+[AVO (А.Михалёв)]+[Sub] торрент без регистрации

 
Статистика раздачи
Размер:  2,84 GB   |    Скачан:  76 раз
Сидов:  1  [  0 KB/s  ]  
 
Автор Сообщение

Marsianka

[] 

Жадность / Greedy (1994) HDRip-AVC
Производство: США / Imagine Entertainment
Жанр: комедия

Режиссер: Джонатан Линн
Актеры: Майкл Дж. Фокс, Кирк Дуглас, Нэнси Трэвис, Оливия д`Або, Фил Хартмен, Эд Бегли мл., Джер Бернс, Коллин Кэмп, Боб Бэлабан, Джойс Хайзер, Ханди Александер, Шаван Фэллон, Мэри Эллен Трейнор, Джонатан Линн, Кевин МакКарти

Описание:
Жадность часто толкает на неблаговидные поступки в погоне за вожделенными деньгами. Это отлично понимает старый лукавый миллионер Джо МакТиг. У него нет своих детей и прямых наследников. Зато, есть куча дальних и близких родственников, стаей кружащихся вокруг него в надежде отхватить лакомый кусок от дядюшкиного наследства. Старик играет с ними, как кошка с мышками. Он нанимает молоденькую симпатичную сиделку Молли Ричардсон и явно к ней благоволит. В стане родственников смятение. Молли — прямая и явная угроза их планам. Надо действовать!



Релиз от: FAGOT100 (NNM-CLUB)
Продолжительность: 01:52:21
Качество видео: HDRip-AVC
Перевод: Профессиональный (многоголосый, закадровый) х2, авторский (одноголосый, закадровый) А.Михалёв
Субтитры: Русский

Видео: AVC, 1024x556 (16:9), 23.976 fps, 2 749 Kbps (0.201 bit/pixel)
Аудио #1: AC-3, 48.0 KHz, 2 ch, 224 Kbps, CBR (Russian) - многоголосый
Аудио #2: AC-3, 48.0 KHz, 6 ch, 384 Kbps, CBR (Russian) - многоголосы
Аудио #3: AC-3, 48.0 KHz, 2 ch, 256 Kbps, CBR (Russian) - авторский
[code]
Формат : Matroska
Версия формата : Version 2
Размер файла : 2,84 Гбайт
Продолжительность : 1 ч. 52 м.
Общий поток : 3613 Кбит/сек
Дата кодирования : UTC 2015-10-05 06:53:50
Программа кодирования : mkvmerge v5.3.0 ('I could have danced') built on Feb 9 2012 10:38:07
Библиотека кодирования : libebml v1.2.3 + libmatroska v1.3.0
Attachment : Yes

Видео
Идентификатор : 1
Формат : AVC
Формат/Информация : Advanced Video Codec
Профиль формата : High@L4.1
Параметр CABAC формата : Да
Параметр ReFrames формата : 9 кадров
Идентификатор кодека : V_MPEG4/ISO/AVC
Продолжительность : 1 ч. 52 м.
Битрейт : 2749 Кбит/сек
Ширина : 1024 пикселя
Высота : 556 пикселей
Соотношение сторон : 1,85:1
Режим частоты кадров : Постоянный
Частота кадров : 23,976 кадра/сек
Цветовое пространство : YUV
Субдискретизация насыщенности : 4:2:0
Битовая глубина : 8 бит
Тип развёртки : Прогрессивная
Бит/(Пиксели*Кадры) : 0.201
Размер потока : 2,10 Гбайт (74%)
Библиотека кодирования : x264 core 146 r2538 121396c
Настройки программы : cabac=1 / ref=9 / deblock=1:-3:-3 / analyse=0x3:0x133 / me=umh / subme=10 / psy=1 / psy_rd=1.00:0.10 / mixed_ref=1 / me_range=32 / chroma_me=1 / trellis=2 / 8x8dct=1 / cqm=0 / deadzone=21,11 / fast_pskip=0 / chroma_qp_offset=-3 / threads=12 / lookahead_threads=2 / sliced_threads=0 / nr=0 / decimate=0 / interlaced=0 / bluray_compat=0 / constrained_intra=0 / bframes=7 / b_pyramid=2 / b_adapt=2 / b_bias=0 / direct=3 / weightb=1 / open_gop=0 / weightp=2 / keyint=240 / keyint_min=23 / scenecut=40 / intra_refresh=0 / rc=2pass / mbtree=0 / bitrate=2749 / ratetol=1.0 / qcomp=0.60 / qpmin=0 / qpmax=69 / qpstep=4 / cplxblur=20.0 / qblur=0.5 / ip_ratio=1.40 / pb_ratio=1.30 / aq=1:1.00
Язык : English
Default : Да
Forced : Нет

Аудио #1
Идентификатор : 2
Формат : AC-3
Формат/Информация : Audio Coding 3
Расширение режима : CM (complete main)
Параметр Endianness формата : Big
Идентификатор кодека : A_AC3
Продолжительность : 1 ч. 52 м.
Вид битрейта : Постоянный
Битрейт : 224 Кбит/сек
Каналы : 2 канала
Расположение каналов : Front: L R
Частота : 48,0 КГц
Битовая глубина : 16 бит
Метод сжатия : С потерями
Размер потока : 180 Мбайт (6%)
Заголовок : Профессиональный многоголосый
Язык : Russian
Default : Да
Forced : Нет

Аудио #2
Идентификатор : 3
Формат : AC-3
Формат/Информация : Audio Coding 3
Расширение режима : CM (complete main)
Параметр Endianness формата : Big
Идентификатор кодека : A_AC3
Продолжительность : 1 ч. 52 м.
Вид битрейта : Постоянный
Битрейт : 384 Кбит/сек
Каналы : 6 каналов
Расположение каналов : Front: L C R, Side: L R, LFE
Частота : 48,0 КГц
Битовая глубина : 16 бит
Метод сжатия : С потерями
Размер потока : 309 Мбайт (11%)
Заголовок : Проыессиональный многоголосый 2
Язык : Russian
Default : Нет
Forced : Нет

Аудио #3
Идентификатор : 4
Формат : AC-3
Формат/Информация : Audio Coding 3
Расширение режима : CM (complete main)
Параметр Endianness формата : Big
Идентификатор кодека : A_AC3
Продолжительность : 1 ч. 52 м.
Вид битрейта : Постоянный
Битрейт : 256 Кбит/сек
Каналы : 2 канала
Расположение каналов : Front: L R
Частота : 48,0 КГц
Битовая глубина : 16 бит
Метод сжатия : С потерями
Размер потока : 206 Мбайт (7%)
Заголовок : Авторский А.Михалёв
Язык : Russian
Default : Нет
Forced : Нет

Текст
Идентификатор : 5
Формат : UTF-8
Идентификатор кодека : S_TEXT/UTF8
Идентификатор кодека/Информация : UTF-8 Plain Text
Язык : Russian
Default : Нет
Forced : Нет

Меню
00:00:00.000 : en:00:00:00.000
00:03:01.598 : en:00:03:01.598
00:08:06.528 : en:00:08:06.528
00:13:30.309 : en:00:13:30.309
00:15:35.476 : en:00:15:35.476
00:22:25.344 : en:00:22:25.344
00:34:03.333 : en:00:34:03.333
00:38:38.024 : en:00:38:38.024
00:47:57.374 : en:00:47:57.374
00:50:43.499 : en:00:50:43.499
01:02:23.365 : en:01:02:23.365
01:05:39.978 : en:01:05:39.978
01:14:27.088 : en:01:14:27.088
01:20:32.369 : en:01:20:32.369
01:26:36.817 : en:01:26:36.817
01:35:36.064 : en:01:35:36.064
01:42:23.137 : en:01:42:23.137
01:48:41.473 : en:01:48:41.473



Скачать Жадность.Greedy.(Джонатан.Линн).[1994.комедия.HDRip-AVC].[MVO]x2+[AVO.(А.Михалёв)]+[Sub].torrent без регистрации
Золото ЗОЛОТАЯ РАЗДАЧА! СКАЧАННОЕ НЕ ЗАСЧИТЫВАЕТСЯ! Золото
Дата: Зарегистрирован   [ Тип: внутренний ] Как тут cкачать?
MAGNET ссылка
MAGNET ссылка


Скачать .torrent

15 KB

Статус: проверено DHT
Скачан: торрент - 76 раз, раздача полностью - 30 раз
Размер: 2,84 GB
Оценка:  - (Голосов: 0)
Поблагодарили: 1
Поделиться ссылкой на эту раздачу с друзьями:
В контактеFacebookОдноклассникиTwitterLivejournalМой МирLiveinternet
 

 
Показать сообщения:    


Вы не можете начинать темы
Вы не можете отвечать на сообщения
Вы не можете редактировать свои сообщения
Вы не можете удалять свои сообщения
Вы не можете голосовать в опросах
Вы не можете прикреплять файлы к сообщениям
Вы можете скачивать файлы