Loading...
Error

Скачать Консьерж / For Love or Money (Барри Зонненфельд) [1993, драма, мелодрама, комедия, DVDRip] [MVO]x2 торрент без регистрации

 
Статистика раздачи
Размер:  778 MB   |    Скачан:  75 раз
Сидов:  1  [  0 KB/s  ]  
 
Автор Сообщение

Marsianka

[] 

Информация о фильме
Название: Консьерж
Оригинальное название: For Love or Money
Год выхода: 1993
Жанр: драма, мелодрама, комедия
Режиссер: Барри Зонненфельд
В ролях: Майкл Дж. Фокс, Габриель Анвар, Энтони Хиггинс, Боб Бэлабан, Майкл Такер, Айзек Мизрахи, Патрик Брин, Удо Кир, Саймон Джонс, Дайян Брилл

О фильме:
У Дугласа, консьержа роскошной гостиницы, две мечты — заработать на собственный отель и жениться на красотке Энди. Щедрые чаевые от богатых клиентов помогут осуществить первую. А со второй проблема — как жениться на девушке, у которой уже есть жених, к тому же красивый и богатый?..


Страна: США
Студия: Imagine Films Entertainment, Universal Pictures
Продолжительность: 01:31:13
Перевод: Профессиональный (многоголосый, закадровый) [СТС] / Профессиональный (многоголосый, закадровый) [1 канал]

Файл
Кодек: DivX / MP3
Качество: DVDRip
Видео: MPEG4, DivX 5, 704x368 (1.913), 25.000 fps, 921 Kbps (0.142 bit/pixel)

Аудио #1: MP3, 48.0 KHz, 2 ch, 128 Kbps, CBR [СТС]
Аудио #2: MP3, 48.0 KHz, 2 ch, 128 Kbps, CBR [1 канал]
General
Complete name : For Love or Money (1993).avi
Format : AVI
Format/Info : Audio Video Interleave
File size : 778 MiB
Duration : 1h 31mn
Overall bit rate : 1 192 Kbps
Movie name : For Love or Money (1993)
Writing application : VirtualDubModRus 1.5.10.2 (build 2540/release)VirtualDubMod build 2540/release

Video
ID : 0
Format : MPEG-4 Visual
Format settings, BVOP : 1
Format settings, QPel : No
Format settings, GMC : No warppoints
Format settings, Matrix : Default (H.263)
Muxing mode : Packed bitstream
Codec ID : DX50
Codec ID/Hint : DivX 5
Duration : 1h 31mn
Bit rate : 921 Kbps
Width : 704 pixels
Height : 368 pixels
Display aspect ratio : 1.913
Frame rate : 25.000 fps
Color space : YUV
Chroma subsampling : 4:2:0
Bit depth : 8 bits
Scan type : Progressive
Compression mode : Lossy
Bits/(Pixel*Frame) : 0.142
Stream size : 601 MiB (77%)
Writing library : DivX 6.8.5 (UTC 2009-08-20)

Audio #1
ID : 1
Format : MPEG Audio
Format version : Version 1
Format profile : Layer 3
Codec ID : 55
Codec ID/Hint : MP3
Duration : 1h 31mn
Bit rate mode : Constant
Bit rate : 128 Kbps
Channel(s) : 2 channels
Sampling rate : 48.0 KHz
Compression mode : Lossy
Stream size : 83.5 MiB (11%)
Alignment : Aligned on interleaves
Interleave, duration : 40 ms (1.00 video frame)
Interleave, preload duration : 504 ms

Audio #2
ID : 2
Format : MPEG Audio
Format version : Version 1
Format profile : Layer 3
Mode : Joint stereo
Mode extension : MS Stereo
Codec ID : 55
Codec ID/Hint : MP3
Duration : 1h 31mn
Bit rate mode : Constant
Bit rate : 128 Kbps
Channel(s) : 2 channels
Sampling rate : 48.0 KHz
Compression mode : Lossy
Stream size : 83.5 MiB (11%)
Alignment : Aligned on interleaves
Interleave, duration : 40 ms (1.00 video frame)
Interleave, preload duration : 504 ms
Writing library : LAME3.97
Encoding settings : -m j -V 4 -q 2 -lowpass 17 -b 128



Скачать Консьерж.For.Love.or.Money.(Барри.Зонненфельд).[1993.драма.мелодрама.комедия.DVDRip].[MVO]x2.torrent без регистрации
Золото ЗОЛОТАЯ РАЗДАЧА! СКАЧАННОЕ НЕ ЗАСЧИТЫВАЕТСЯ! Золото
Дата: Зарегистрирован   [ Тип: внутренний ] Как тут cкачать?
MAGNET ссылка
MAGNET ссылка


Скачать .torrent

16 KB

Статус: проверено DHT
Скачан: торрент - 75 раз, раздача полностью - 17 раз
Размер: 778 MB
Оценка:  - (Голосов: 0)
Поблагодарили: 0
Поделиться ссылкой на эту раздачу с друзьями:
В контактеFacebookОдноклассникиTwitterLivejournalМой МирLiveinternet
 

 
Показать сообщения:    


Вы не можете начинать темы
Вы не можете отвечать на сообщения
Вы не можете редактировать свои сообщения
Вы не можете удалять свои сообщения
Вы не можете голосовать в опросах
Вы не можете прикреплять файлы к сообщениям
Вы можете скачивать файлы