Loading...
Error

Скачать В трезвом уме и твердой памяти / Clean and Sober (Гленн Гордон Карон) [1988, драма, WEB-DLRip] [Dub] торрент без регистрации

 
Статистика раздачи
Размер:  1,46 GB   |    Скачан:  58 раз
Сидов:  1  [  0 KB/s  ]  
 
Автор Сообщение

Marsianka

[] 



Информация о фильме
Название: В трезвом уме и твердой памяти
Оригинальное название: Clean and Sober
Год выхода: 1988
Жанр: драма
Режиссер: Гленн Гордон Карон
В ролях: Майкл Китон, Кэти Бейкер, Морган Фриман, Тейт Донован, Генри Джудд Бэйкер, Клаудия Кристиан, Дж. Дэвид Красснер, Дэкин Мэтьюз, Мэри Катрин Мартин, Патриция Куинн

Сюжет фильма:
Брокер по недвижимости Дэрил Пойнтер, пристрастившийся к алкоголю и кокаину. Однажды утром он находит в своей постели труп женщины, умершей от передозировки, с которой познакомился накануне. По телефону ему сообщают, что с одного из его счетов пропала кругленькая сумма.

В панике, чтобы убежать от закона, Дэрил решает записаться в группу в центр реабилитации наркоманов, где он знакомится с крутым парнем Крэйгом, бывшим наркоманом, работающим в клинике консультантом. Он без труда «вычисляет» все приемы (трюки, уловки) Дэрила. Спустя какое-то время Дэрил начинает понимать, что, возможно, он оказался именно там, где нужно.



Выпущено: США
Продолжительность: 02:04:08
Субтитры: None
Перевод: Дублированный (Варус-Видео)

Файл
Качество: WEB-DLRip
Формат: AVI
Источник: iTunes
Видео: 720x400 at 23.976 fps, XviD 73, ~1480 kbps
Aудио: 48 kHz, AC3, 2/0 (L,R) ch, ~192.00 kbps avg |Дубляж, Варус-Видео|

General
Complete name : D:В трезвом уме и твердой памяти.(1988).WEB-DLRIP.[-=DoMiNo=-].avi
Format : AVI
Format/Info : Audio Video Interleave
File size : 1.46 GiB
Duration : 2h 4mn
Overall bit rate : 1 681 Kbps
Writing library : VirtualDub build 35576/release

Video
ID : 0
Format : MPEG-4 Visual
Format profile : Advanced Simple@L5
Format settings, BVOP : 2
Format settings, QPel : No
Format settings, GMC : No warppoints
Format settings, Matrix : Custom
Muxing mode : Packed bitstream
Codec ID : XVID
Codec ID/Hint : XviD
Duration : 2h 4mn
Bit rate : 1 480 Kbps
Width : 720 pixels
Height : 400 pixels
Display aspect ratio : 16:9
Frame rate : 23.976 fps
Color space : YUV
Chroma subsampling : 4:2:0
Bit depth : 8 bits
Scan type : Interlaced
Scan order : Bottom Field First
Compression mode : Lossy
Bits/(Pixel*Frame) : 0.214
Stream size : 1.28 GiB (88%)
Writing library : XviD 73

Audio
ID : 1
Format : AC-3
Format/Info : Audio Coding 3
Mode extension : CM (complete main)
Format settings, Endianness : Big
Codec ID : 2000
Duration : 2h 4mn
Bit rate mode : Constant
Bit rate : 192 Kbps
Channel(s) : 2 channels
Channel positions : Front: L R
Sampling rate : 48.0 KHz
Compression mode : Lossy
Stream size : 170 MiB (11%)
Alignment : Aligned on interleaves
Interleave, duration : 42 ms (1.00 video frame)
Interleave, preload duratio : 512 ms







Скачать В.трезвом.уме.и.твердой.памяти.Clean.and.Sober.(Гленн.Гордон.Карон).[1988.драма.WEB-DLRip].[Dub].torrent без регистрации
Золото ЗОЛОТАЯ РАЗДАЧА! СКАЧАННОЕ НЕ ЗАСЧИТЫВАЕТСЯ! Золото
Дата: Зарегистрирован   [ Тип: внутренний ] Как тут cкачать?
MAGNET ссылка
MAGNET ссылка


Скачать .torrent

15 KB

Статус: проверено DHT
Скачан: торрент - 58 раз, раздача полностью - 2 раз
Размер: 1,46 GB
Оценка:  - (Голосов: 0)
Поблагодарили: 0
Поделиться ссылкой на эту раздачу с друзьями:
В контактеFacebookОдноклассникиTwitterLivejournalМой МирLiveinternet
 

 
Показать сообщения:    


Вы не можете начинать темы
Вы не можете отвечать на сообщения
Вы не можете редактировать свои сообщения
Вы не можете удалять свои сообщения
Вы не можете голосовать в опросах
Вы не можете прикреплять файлы к сообщениям
Вы можете скачивать файлы