Loading...
Error

Скачать Военные потери / Casualties of War (Брайан Де Пальма) [1989, драма, приключения, военный, BDRip-AVC] [DVO] торрент без регистрации

 
Статистика раздачи
Размер:  2,19 GB   |    Скачан:  79 раз

Полного источника не было: 26 минут

 
Автор Сообщение

Marsianka

[] 

Информация о фильме
Название: Военные потери
Оригинальное название: Casualties of War
Год выпуска: 1989
Жанр: драма, приключения, военный
Режиссер: Брайан Де Пальма
В ролях: Майкл Дж. Фокс, Шон Пенн, Дон Харви, Джон С. Райлли, Джон Легуизамо, Тхюй Тху Ле, Эрик Кинг, Джек Гуолтни, Винг Рэймс, Дэн Мартин

Описание:
«Военные потери» основан на реальной истории, случившейся со взводом американских солдат во время войны во Вьетнаме. Рядовой Эрикссон становится свидетелем ужасного изнасилования и убийства вьетнамской девушки во время боевой операции. Отстаивая свою позицию, он вынужден противостоять всему взводу и его командиру — сержанту Месерву — человеку, давно забывшему о таком чувстве, как сострадание…



Выпущено: США / Columbia Pictures
Продолжительность: 01:53:33
Перевод: Профессиональный двухголосый (R5)

Файл
Качество: BDRip-AVC
Видео: MPEG-4 AVC, 2305 Кбит/с, 1056x440, 23.976 кадр/с
Аудио: AC3, 6 ch, 448 Кбит/с
General
Unique ID : 221566416869174982852152227388565638380 (0xA6B023C2D90FA587ACBA42C4E51A4CEC)
Complete name : F:Voennye.poteri.(1989).BDRip-AVC.[-=DoMiNo=-].mkv
Format : Matroska
Format version : Version 2
File size : 2.19 GiB
Duration : 1h 53mn
Overall bit rate : 2 755 Kbps
Encoded date : UTC 2014-07-11 21:10:39
Writing application : mkvmerge v6.1.0 ('Old Devil') built on Mar 4 2013 09:10:42
Writing library : libebml v1.3.0 + libmatroska v1.4.0

Video
ID : 1
Format : AVC
Format/Info : Advanced Video Codec
Format profile : High@L4.1
Format settings, CABAC : Yes
Format settings, ReFrames : 12 frames
Codec ID : V_MPEG4/ISO/AVC
Duration : 1h 53mn
Bit rate : 2 305 Kbps
Width : 1 056 pixels
Height : 440 pixels
Display aspect ratio : 2.40:1
Frame rate mode : Constant
Frame rate : 23.976 fps
Color space : YUV
Chroma subsampling : 4:2:0
Bit depth : 8 bits
Scan type : Progressive
Bits/(Pixel*Frame) : 0.207
Stream size : 1.79 GiB (82%)
Writing library : x264 core 130 r2273 b3065e6
Encoding settings : cabac=1 / ref=12 / deblock=1:-3:-3 / analyse=0x3:0x133 / me=umh / subme=11 / psy=1 / psy_rd=1.00:0.50 / mixed_ref=1 / me_range=24 / chroma_me=1 / trellis=2 / 8x8dct=1 / cqm=0 / deadzone=21,11 / fast_pskip=0 / chroma_qp_offset=-3 / threads=12 / lookahead_threads=4 / sliced_threads=0 / slices=4 / nr=0 / decimate=1 / interlaced=0 / bluray_compat=0 / constrained_intra=0 / bframes=11 / b_pyramid=2 / b_adapt=2 / b_bias=0 / direct=3 / weightb=1 / open_gop=0 / weightp=2 / keyint=250 / keyint_min=23 / scenecut=40 / intra_refresh=0 / rc_lookahead=60 / rc=2pass / mbtree=1 / bitrate=2305 / ratetol=1.0 / qcomp=0.70 / qpmin=0 / qpmax=69 / qpstep=4 / cplxblur=20.0 / qblur=0.5 / ip_ratio=1.40 / aq=2:2.00
Default : Yes
Forced : No

Audio
ID : 2
Format : AC-3
Format/Info : Audio Coding 3
Mode extension : CM (complete main)
Format settings, Endianness : Big
Codec ID : A_AC3
Duration : 1h 53mn
Bit rate mode : Constant
Bit rate : 448 Kbps
Channel(s) : 6 channels
Channel positions : Front: L C R, Side: L R, LFE
Sampling rate : 48.0 KHz
Bit depth : 16 bits
Compression mode : Lossy
Stream size : 364 MiB (16%)
Default : Yes
Forced : No







Скачать Военные.потери.Casualties.of.War.(Брайан.Де.Пальма).[1989.драма.приключения.военный.BDRip-AVC].[DVO].torrent без регистрации
Золото ЗОЛОТАЯ РАЗДАЧА! СКАЧАННОЕ НЕ ЗАСЧИТЫВАЕТСЯ! Золото
Дата: Зарегистрирован   [ Тип: внутренний ] Как тут cкачать?
MAGNET ссылка
MAGNET ссылка


Скачать .torrent

12 KB

Статус: проверено DHT
Скачан: торрент - 79 раз, раздача полностью - 22 раз
Размер: 2,19 GB
Оценка:  - (Голосов: 0)
Поблагодарили: 1
Поделиться ссылкой на эту раздачу с друзьями:
В контактеFacebookОдноклассникиTwitterLivejournalМой МирLiveinternet
 

 
Показать сообщения:    


Вы не можете начинать темы
Вы не можете отвечать на сообщения
Вы не можете редактировать свои сообщения
Вы не можете удалять свои сообщения
Вы не можете голосовать в опросах
Вы не можете прикреплять файлы к сообщениям
Вы можете скачивать файлы