Loading...
Error

Скачать Призраки Молли Хартли / The Haunting of Molly Hartley (Мики Лиделл) [2008, триллер, ужасы, HDRip-AVC] [Dub] торрент без регистрации

 
Статистика раздачи
Размер:  1,68 GB   |    Скачан:  60 раз
Сидов:  1  [  0 KB/s  ]  
 
Автор Сообщение

Marsianka

[] 

Призраки Молли Хартли / The Haunting of Molly Hartley (2008) HDRip-AVC
Производство: США, Huntington Prep, Liddell Entertainment
Жанр: триллер, ужасы

Режиссер: Мики Лиделл
Актеры: Хэйли Беннетт, Чейз Кроуфорд, Джейк Уэбер, Шанна Коллинз, Шеннон Мари Вудворд, Анна-Линн МакКорд, Марин Хинкл, Нина Семашко, Джош Стюарт, Джессика Лаундес, Рэнди Уэйн, Тони Бессон, Кевин Куни, Рон Кэнэда

Описание:
Выбирая учебное заведение — не ошибись! Молли Хартли стала обычной ученицей очень необычной школы, но пока она не знает об этом. Новые подруги, первая любовь, и очень странные домашние задания: преодолеть страх, перетерпеть ужас и скрыться от преследования. Нечто таинственное и мистическое вторглось в её жизнь. Только в канун 18-летия Молли понимает, что она не такая как все…



Релиз от: FAGOT100 (NNM-CLUB)
Продолжительность: 01:24:55
Качество видео: HDRip-AVC
Перевод: Дублированный
Субтитры: отсутствуют

Видео: AVC, 1024x556 (16:9), 24.000 fps, 2 449 Kbps (0.179 bit/pixel)
Аудио: AC-3, 48.0 KHz, 6 ch, 384 Kbps, CBR (Russian)

Формат : Matroska
Версия формата : Version 2
Размер файла : 1,68 Гбайт
Продолжительность : 1 ч. 24 м.
Общий поток : 2829 Кбит/сек
Дата кодирования : UTC 2015-10-05 15:12:10
Программа кодирования : mkvmerge v5.3.0 ('I could have danced') built on Feb 9 2012 10:38:07
Библиотека кодирования : libebml v1.2.3 + libmatroska v1.3.0
Attachment : Yes

Видео
Идентификатор : 1
Формат : AVC
Формат/Информация : Advanced Video Codec
Профиль формата : High@L4.1
Параметр CABAC формата : Да
Параметр ReFrames формата : 9 кадров
Идентификатор кодека : V_MPEG4/ISO/AVC
Продолжительность : 1 ч. 24 м.
Битрейт : 2449 Кбит/сек
Ширина : 1024 пикселя
Высота : 556 пикселей
Соотношение сторон : 1,85:1
Режим частоты кадров : Постоянный
Частота кадров : 24,000 кадра/сек
Цветовое пространство : YUV
Субдискретизация насыщенности : 4:2:0
Битовая глубина : 8 бит
Тип развёртки : Прогрессивная
Бит/(Пиксели*Кадры) : 0.179
Размер потока : 1,42 Гбайт (84%)
Библиотека кодирования : x264 core 146 r2538 121396c
Настройки программы : cabac=1 / ref=9 / deblock=1:-3:-3 / analyse=0x3:0x133 / me=umh / subme=10 / psy=1 / psy_rd=1.00:0.10 / mixed_ref=1 / me_range=32 / chroma_me=1 / trellis=2 / 8x8dct=1 / cqm=0 / deadzone=21,11 / fast_pskip=0 / chroma_qp_offset=-3 / threads=12 / lookahead_threads=2 / sliced_threads=0 / nr=0 / decimate=0 / interlaced=0 / bluray_compat=0 / constrained_intra=0 / bframes=7 / b_pyramid=2 / b_adapt=2 / b_bias=0 / direct=3 / weightb=1 / open_gop=0 / weightp=2 / keyint=240 / keyint_min=24 / scenecut=40 / intra_refresh=0 / rc=2pass / mbtree=0 / bitrate=2449 / ratetol=1.0 / qcomp=0.60 / qpmin=0 / qpmax=69 / qpstep=4 / cplxblur=20.0 / qblur=0.5 / ip_ratio=1.40 / pb_ratio=1.30 / aq=1:1.00
Язык : English
Default : Да
Forced : Нет

Аудио
Идентификатор : 2
Формат : AC-3
Формат/Информация : Audio Coding 3
Расширение режима : CM (complete main)
Параметр Endianness формата : Big
Идентификатор кодека : A_AC3
Продолжительность : 1 ч. 24 м.
Вид битрейта : Постоянный
Битрейт : 384 Кбит/сек
Каналы : 6 каналов
Расположение каналов : Front: L C R, Side: L R, LFE
Частота : 48,0 КГц
Битовая глубина : 16 бит
Метод сжатия : С потерями
Задержка видео : 10 мс.
Размер потока : 233 Мбайт (14%)
Язык : Russian
Default : Нет
Forced : Нет



Скачать Призраки.Молли.Хартли.The.Haunting.of.Molly.Hartley.(Мики.Лиделл).[2008.триллер.ужасы.HDRip-AVC].[Dub].torrent без регистрации
Золото ЗОЛОТАЯ РАЗДАЧА! СКАЧАННОЕ НЕ ЗАСЧИТЫВАЕТСЯ! Золото
Дата: Зарегистрирован   [ Тип: внутренний ] Как тут cкачать?
MAGNET ссылка
MAGNET ссылка


Скачать .torrent

17 KB

Статус: проверено DHT
Скачан: торрент - 60 раз, раздача полностью - 0 раз
Размер: 1,68 GB
Оценка:  - (Голосов: 0)
Поблагодарили: 1
Поделиться ссылкой на эту раздачу с друзьями:
В контактеFacebookОдноклассникиTwitterLivejournalМой МирLiveinternet
 

 
Показать сообщения:    


Вы не можете начинать темы
Вы не можете отвечать на сообщения
Вы не можете редактировать свои сообщения
Вы не можете удалять свои сообщения
Вы не можете голосовать в опросах
Вы не можете прикреплять файлы к сообщениям
Вы можете скачивать файлы