Loading...
Error

Скачать Американская семейка (Семейные Ценности) / Modern Family (сезон 07) (Майкл Спиллер) [2015, комедия, WEB-DL] [720p] [MVO (LostFilm)]+[Eng]+[Sub Rus, Eng] торрент без регистрации

 
Статистика раздачи
Размер:  15,91 GB   |    Скачан:  2386 раз
Сидов:  1  [  0 KB/s  ]  
 
Автор Сообщение

МихаНЕзатор

[] 

Американская семейка (Семейные Ценности) / Modern Family


Название: Американская семейка (Семейные Ценности)
Оригинальное название: Modern Family
Год выхода: 2015
Жанр: комедия

Режиссер: Майкл Спиллер, Джейсон Уайнер, Гэйл Манкусо

В ролях: Эд О`Нил, София Вергара, Тай Буррелл, Джули Боуэн, Джесси Тайлер Фергюсон, Эрик Стоунстрит, Рико Родригез, Нолан Гоулд, Сара Хайланд, Эриель Винтер

О фильме: Комедийный хит о чудаковатых семейках, который из года в год оказывается в топах всех телевизионных премий. Сериал на примере взаимоотношений трёх американских семей остроумно препарирует знакомые каждому бытовые ситуации, гендерные проблемы и полезные откровения, превращаясь в настоящую семейную энциклопедию в ироничном ключе.



Страна: США, 20th Century Fox Television, Levitan / Lloyd
Продолжительность: 2 x ~ 00:21:00
Перевод: Профессиональный многоголосый (LostFilm)

Качество: WEB-DL 720p
Видео: MPEG-4 AVC, ~ 3800 Кбит/с, 1280x720
Звук: Русский (AC3, 2 ch, 384 Кбит/с), английский (AC3, 6 ch, 384 Кбит/с)
Субтитры: Русские, английские

АНОНСЫ ПОПУЛЯРНЫХ РАЗДАЧ


Торрент обновлён, добавлена 22-я серия!
Общее
Уникальный идентификатор : 172988132856189980311455431832550945602 (0x82244D713D23C2C3888C2FC7EA96B342)
Полное имя : E:SerialsTorrentsMF_S07_LostFilmMF_S07E01.WEB-DL.720p.mkv
Формат : Matroska
Версия формата : Version 2
Размер файла : 721 Мбайт
Продолжительность : 21 м.
Общий поток : 4662 Кбит/сек
Дата кодирования : UTC 2015-10-07 12:03:59
Программа кодирования : mkvmerge v8.4.0 ('A better way to fly') 64bit
Библиотека кодирования : libebml v1.3.1 + libmatroska v1.4.2

Видео
Идентификатор : 1
Формат : AVC
Формат/Информация : Advanced Video Codec
Профиль формата : High@L3.1
Параметр CABAC формата : Нет
Параметр ReFrames формата : 2 кадра
Идентификатор кодека : V_MPEG4/ISO/AVC
Продолжительность : 21 м.
Битрейт : 3802 Кбит/сек
Ширина : 1280 пикселей
Высота : 720 пикселей
Соотношение сторон : 16:9
Режим частоты кадров : Постоянный
Частота кадров : 23,976 кадра/сек
Цветовое пространство : YUV
Субдискретизация насыщенности : 4:2:0
Битовая глубина : 8 бит
Тип развёртки : Прогрессивная
Бит/(Пиксели*Кадры) : 0.172
Размер потока : 588 Мбайт (82%)
Язык : English
Default : Да
Forced : Нет
Цветовой диапазон : Limited
Основные цвета : BT.709
Характеристики трансфера : BT.709
Коэффициенты матрицы : BT.709

Аудио #1
Идентификатор : 2
Формат : AC-3
Формат/Информация : Audio Coding 3
Расширение режима : CM (complete main)
Параметр Endianness формата : Big
Идентификатор кодека : A_AC3
Продолжительность : 21 м.
Вид битрейта : Постоянный
Битрейт : 384 Кбит/сек
Каналы : 2 канала
Расположение каналов : Front: L R
Частота : 48,0 КГц
Метод сжатия : С потерями
Размер потока : 59,3 Мбайт (8%)
Заголовок : LostFilm
Язык : Russian
Default : Да
Forced : Нет

Аудио #2
Идентификатор : 3
Формат : AC-3
Формат/Информация : Audio Coding 3
Расширение режима : CM (complete main)
Параметр Endianness формата : Big
Идентификатор кодека : A_AC3
Продолжительность : 21 м.
Вид битрейта : Постоянный
Битрейт : 384 Кбит/сек
Каналы : 6 каналов
Расположение каналов : Front: L C R, Side: L R, LFE
Частота : 48,0 КГц
Метод сжатия : С потерями
Размер потока : 59,3 Мбайт (8%)
Заголовок : Original
Язык : English
Default : Нет
Forced : Нет

Текст #1
Идентификатор : 4
Формат : UTF-8
Идентификатор кодека : S_TEXT/UTF8
Идентификатор кодека/Информация : UTF-8 Plain Text
Заголовок : Cotranslate
Язык : Russian
Default : Нет
Forced : Нет

Текст #2
Идентификатор : 5
Формат : UTF-8
Идентификатор кодека : S_TEXT/UTF8
Идентификатор кодека/Информация : UTF-8 Plain Text
Заголовок : Addic7ed
Язык : English
Default : Нет
Forced : Нет



Скачать Американская.семейка.(Семейные.Ценности).Modern.Family.(сезон.07).(Майкл.Спиллер).[2015.комедия.WEB-DL].[720p].[MVO.(LostFilm)]+[Eng]+[Sub.Rus.Eng].torrent без регистрации
Золото ЗОЛОТАЯ РАЗДАЧА! СКАЧАННОЕ НЕ ЗАСЧИТЫВАЕТСЯ! Золото
Дата: Зарегистрирован   [ Тип: внутренний ] Как тут cкачать?
MAGNET ссылка
MAGNET ссылка


Скачать .torrent

81 KB

Статус: проверено DHT
Скачан: торрент - 2386 раз, раздача полностью - 0 раз
Размер: 15,91 GB
Оценка:  - (Голосов: 0)
Поблагодарили: 0
Поделиться ссылкой на эту раздачу с друзьями:
В контактеFacebookОдноклассникиTwitterLivejournalМой МирLiveinternet
 

 
Показать сообщения:    


Вы не можете начинать темы
Вы не можете отвечать на сообщения
Вы не можете редактировать свои сообщения
Вы не можете удалять свои сообщения
Вы не можете голосовать в опросах
Вы не можете прикреплять файлы к сообщениям
Вы можете скачивать файлы