Loading...
Error

Скачать Команда мечты / The Dream Team (Ховард Зифф) [1989, комедия, DVDRip-AVC] [MVO]+[AVO]+[Sub] торрент без регистрации

 
Статистика раздачи
Размер:  1,98 GB   |    Скачан:  51 раз
Сидов:  1  [  0 KB/s  ]  
 
Автор Сообщение

Marsianka

[] 

Команда мечты
| The Dream Team |


Информация о фильме
Название: Команда мечты
Оригинальное название: The Dream Team
Год выхода: 1989
Жанр: комедия
Режиссер: Ховард Зифф
В ролях: Майкл Китон, Кристофер Ллойд, Питер Бойл, Стивен Ферст, Дэннис Буцикарис, Лоррейн Бракко, Майло О`Ши, Филип Боско, Джеймс Ремар, Джек Гилпин

О фильме:
Фильм о четырех психически больных, отправившихся на бейсбольный матч и по дороге потерявших своего психиатра. Билли, патологический лжец с болезненной склонностью к паникерству, заблудился в Нью-Йорке вместе со своими не совсем адекватными товарищами: Генри, придурком-ловкачом, Джеком, бывшим высокопоставленным рекламистом, считающим себя Христом, и Альбертом, кататоником, проходящим курс психоанализа.



Страна: США
Студия: Imagine Entertainment, Universal Pictures
Продолжительность: 01:52:12
Перевод: Профессиональный многоголосый, авторский

Файл
Кодек: h.264
Качество: DVDRip-AVC
Видео: 1941 Кбит/с, 720х460@853х460, 23.976 кадр/с

• №1: Русский (AC3, 2 ch, 192 Кбит/с) Профессиональный многоголосый
• №2: Русский (AC3, 2 ch, 192 Кбит/с) Авторский одноголосый [Алексей Михалев]
• №3: Английский (AC3, 2 ch, 192 Кбит/с)

Субтитры: Английские

--------------------------------------------------------------------------------------
x264 [info]: frame I:1263 Avg QP:17.06 size: 53490
x264 [info]: frame P:31918 Avg QP:19.60 size: 21039
x264 [info]: frame B:128391 Avg QP:21.14 size: 6978
--------------------------------------------------------------------------------------

Полное имя : The.Dream.Team.1989.x264.DVDRip.(AVC).0ptimus.mkv
Формат : Matroska
Версия формата : Version 4 / Version 2
Размер файла : 1,98 Гбайт
Продолжительность : 1 ч. 52 м.
Общий поток : 2519 Кбит/сек
Название фильма : Команда мечты | The Dream Team [1989] -=DVDRip (AVC) by 0ptimus=-
Дата кодирования : UTC 2013-11-25 07:35:08
Программа кодирования : mkvmerge v6.1.0 ('Old Devil') built on Mar 2 2013 14:32:37
Библиотека кодирования : libebml v1.3.0 + libmatroska v1.4.0

Видео
Идентификатор : 1
Формат : AVC
Формат/Информация : Advanced Video Codec
Профиль формата : High@L4.1
Параметр CABAC формата : Да
Параметр ReFrames формата : 9 кадров
Идентификатор кодека : V_MPEG4/ISO/AVC
Продолжительность : 1 ч. 52 м.
Битрейт : 1941 Кбит/сек
Ширина : 720 пикселей
Высота : 460 пикселей
Соотношение сторон : 16:9
Соотношение сторон в оригинале : 16:9
Частота кадров : 23,976 кадра/сек
Цветовое пространство : YUV
Субдискретизация насыщенности : 4:2:0
Битовая глубина : 8 бит
Тип развёртки : Прогрессивная
Бит/(Пиксели*Кадры) : 0.244
Размер потока : 1,49 Гбайт (75%)
Заголовок : Rip by 0ptimus
Библиотека кодирования : x264 core 133 r2334 a3ac64b
Настройки программы : cabac=1 / ref=9 / deblock=1:-3:-3 / analyse=0x3:0x113 / me=umh / subme=11 / psy=1 / psy_rd=1.00:0.20 / mixed_ref=1 / me_range=32 / chroma_me=1 / trellis=2 / 8x8dct=1 / cqm=0 / deadzone=21,11 / fast_pskip=0 / chroma_qp_offset=-3 / threads=3 / lookahead_threads=1 / sliced_threads=0 / nr=0 / decimate=0 / interlaced=0 / bluray_compat=0 / constrained_intra=0 / bframes=8 / b_pyramid=2 / b_adapt=2 / b_bias=0 / direct=3 / weightb=1 / open_gop=0 / weightp=2 / keyint=240 / keyint_min=23 / scenecut=40 / intra_refresh=0 / rc_lookahead=40 / rc=2pass / mbtree=0 / bitrate=1941 / ratetol=1.0 / qcomp=0.60 / qpmin=0 / qpmax=69 / qpstep=4 / cplxblur=20.0 / qblur=0.5 / vbv_maxrate=50000 / vbv_bufsize=50000 / nal_hrd=none / ip_ratio=1.40 / pb_ratio=1.30 / aq=1:1.00
Язык : English

Аудио #1
Идентификатор : 2
Формат : AC-3
Формат/Информация : Audio Coding 3
Расширение режима : CM (complete main)
Идентификатор кодека : A_AC3
Продолжительность : 1 ч. 52 м.
Вид битрейта : Постоянный
Битрейт : 192 Кбит/сек
Каналы : 2 канала
Расположение каналов : Front: L R
Частота : 48,0 КГц
Битовая глубина : 16 бит
Метод сжатия : С потерями
Размер потока : 154 Мбайт (8%)
Заголовок : Многоглосый закадровый AC3 2.0 @ 192 kbps
Язык : Russian

Аудио #2
Идентификатор : 3
Формат : AC-3
Формат/Информация : Audio Coding 3
Профиль формата : Dolby Digital
Расширение режима : CM (complete main)
Идентификатор кодека : A_AC3
Продолжительность : 1 ч. 52 м.
Вид битрейта : Постоянный
Битрейт : 192 Кбит/сек
Каналы : 2 канала
Расположение каналов : Front: L R
Частота : 48,0 КГц
Битовая глубина : 16 бит
Метод сжатия : С потерями
Размер потока : 154 Мбайт (8%)
Заголовок : Авторский [Алексей Михалев] AC3 2.0 @ 192 kbps
Язык : Russian

Аудио #3
Идентификатор : 4
Формат : AC-3
Формат/Информация : Audio Coding 3
Профиль формата : Dolby Digital
Расширение режима : CM (complete main)
Идентификатор кодека : A_AC3
Продолжительность : 1 ч. 52 м.
Вид битрейта : Постоянный
Битрейт : 192 Кбит/сек
Каналы : 2 канала
Расположение каналов : Front: L R
Частота : 48,0 КГц
Битовая глубина : 16 бит
Метод сжатия : С потерями
Размер потока : 154 Мбайт (8%)
Заголовок : AC3 2.0 @ 192 kbps
Язык : English

Текст
Идентификатор : 5
Формат : UTF-8
Идентификатор кодека : S_TEXT/UTF8
Идентификатор кодека/Информация : UTF-8 Plain Text
Язык : English

Меню
00:00:00.000 : :Chapter 01
00:05:50.601 : :Chapter 02
00:16:51.335 : :Chapter 03
00:22:34.102 : :Chapter 04
00:28:48.602 : :Chapter 05
00:33:10.536 : :Chapter 06
00:37:10.036 : :Chapter 07
00:44:07.437 : :Chapter 08
00:50:18.071 : :Chapter 09
00:56:23.571 : :Chapter 10
01:06:23.071 : :Chapter 11
01:11:50.505 : :Chapter 12
01:18:34.339 : :Chapter 13
01:27:17.873 : :Chapter 14
01:33:04.841 : :Chapter 15
01:37:30.008 : :Chapter 16
01:41:47.008 : :Chapter 17
01:48:13.508 : :Chapter 18
01:52:12.275 : :Chapter 19
Релиз от:



Скачать Команда.мечты.The.Dream.Team.(Ховард.Зифф).[1989.комедия.DVDRip-AVC].[MVO]+[AVO]+[Sub].torrent без регистрации
Золото ЗОЛОТАЯ РАЗДАЧА! СКАЧАННОЕ НЕ ЗАСЧИТЫВАЕТСЯ! Золото
Дата: Зарегистрирован   [ Тип: внутренний ] Как тут cкачать?
MAGNET ссылка
MAGNET ссылка


Скачать .torrent

21 KB

Статус: проверено DHT
Скачан: торрент - 51 раз, раздача полностью - 13 раз
Размер: 1,98 GB
Оценка:  - (Голосов: 0)
Поблагодарили: 2
Поделиться ссылкой на эту раздачу с друзьями:
В контактеFacebookОдноклассникиTwitterLivejournalМой МирLiveinternet
 

 
Показать сообщения:    


Вы не можете начинать темы
Вы не можете отвечать на сообщения
Вы не можете редактировать свои сообщения
Вы не можете удалять свои сообщения
Вы не можете голосовать в опросах
Вы не можете прикреплять файлы к сообщениям
Вы можете скачивать файлы