Loading...
Error

Скачать Американская история ужасов / American Horror Story (сезон 05) (Брэд Фэлчак, Райан Мерфи) [2015, ужасы, триллер, WEB-DL] [720p] [MVO (OMSKBIRD records)] + Original + Eng Sub торрент без регистрации

 
Статистика раздачи
Размер:  24,51 GB   |    Скачан:  1565 раз
Сидов:  1  [  0 KB/s  ]  
 
Автор Сообщение

МихаНЕзатор

[] 

Американская история ужасов: Отель / American Horror Story: Hotel


Год выпуска: 2015
Страна: США, Brad Falchuk Teley-Vision, Ryan Murphy Produc
Жанр: Ужасы, фэнтези, триллер, драма
Продолжительность: ~ 00:55:00
Перевод: Любительский (многоголосый закадровый) OMSKBIRD records
Режиссёр: Брэдли Букер, Майкл Аппендаль, Альфонсо Гомез-Рейон, Майкл Леманн

В ролях: Леди Гага, Эван Питерс, Джессика Лэнг, Лили Рэйб, Фрэнсис Конрой, Сара Полсон, Таисса Фармига, Дэнис О`Харе, Закари Куинто, Дилан МакДермотт, Джэми Брюэр, Кэти Бэйтс, Джозеф Файнс, Лиззи Брошере, Эмма Робертс, Джеймс Кромуэлл, Конни Бриттон, Анджела Бассетт, Габури Сидибе, Кейт Мара
Роли озвучивали: Константин Погодаев, Ольга Федорова, Оксана Мальцева, Павел Ярощик, Владислав Данилов
Перевод: Екатерина Кузнецова
Звукорежиссер: Павел Квентов
Монтаж, работа со звуком: Re-L Mayer

Скачать: Sample | КиноПоиск: 8.1 | IMDB: 8.3

Качество: WEB-DL 1080p
Контейнер: MKV
Видео: H.264 / AVC, ~ 4900 Kbps / 1920x1080p / 23.976 fps / Level 4.0;
Аудио: Dolby Digital 5.1 AC3, 48000Hz, 6 channels, 384.00 kbps avg |OMSKBIRD records|;
Аудио 2: Dolby Digital 5.1 AC3, 48000Hz, 6 channels, 384.00 kbps avg |Original|;
Субтитры: Русские [01 серия] — на не озвученные реплики: 45: 22, 59:36. Английские.

АНОНСЫ ПОПУЛЯРНЫХ РАЗДАЧ


Торрент обновлён, добавлена 13-я серия!
Пятая часть антологии кошмаров и городских легенд, полная отсылок к лучшим традициям хоррор фильмов. В этот раз действие разворачивается в старом отеле в центре Лос-Анджелеса, который таит в себе много необъяснимых загадок. Звездой сезона стала Леди Гага в роли богатой графини и владелицы отеля «Кортес». В новом сезоне сразу два главных злодея, настоящий любовный треугольник, больше внимания к мужским ролям, отсылки к первому сезону и много-много крови. В «Отель» помимо постоянного актерского состава заселились Мэтт Бомер, Шайен Джексон, Макс Гринфилд и модель Наоми Кэмпбелл, уже успевшая блеснуть в «Империи». Кроме того с эпизодической ролью все-таки возвращается Джессика Лэнг.
General
Unique ID : 197571035041024176797048280449436019670 (0x94A2CC18C44212E4962789D64E8EEBD6)
Complete name : E:\Torrents\American Horror Story - Hotel [S05]\American.Horror.Story.S05E01.WEBDL.1080p.Omskbird.mkv
Format : Matroska
Format version : Version 4 / Version 2
File size : 2.57 GiB
Duration : 1h 4mn
Overall bit rate : 5 715 Kbps
Movie name : American.Horror.Story.S05E01.1080p.WEB-DL.DD5.1.H264-RARBG
Encoded date : UTC 2015-10-09 15:00:14
Writing application : mkvmerge v8.2.0 ('World of Adventure') 64bit
Writing library : libebml v1.3.1 + libmatroska v1.4.2
DURATION : 01:04:29.024000000
NUMBER_OF_FRAMES : 120907
NUMBER_OF_BYTES : 185713152
_STATISTICS_WRITING_APP : mkvmerge v8.2.0 ('World of Adventure') 64bit
_STATISTICS_WRITING_DATE_UTC : 2015-10-09 15:00:14
_STATISTICS_TAGS : BPS DURATION NUMBER_OF_FRAMES NUMBER_OF_BYTES
Video
ID : 1
Format : AVC
Format/Info : Advanced Video Codec
Format profile : High@L4
Format settings, CABAC : Yes
Format settings, ReFrames : 4 frames
Codec ID : V_MPEG4/ISO/AVC
Duration : 1h 4mn
Bit rate : 4 834 Kbps
Width : 1 920 pixels
Height : 1 080 pixels
Display aspect ratio : 16:9
Frame rate mode : Constant
Frame rate : 23.976 fps
Color space : YUV
Chroma subsampling : 4:2:0
Bit depth : 8 bits
Scan type : Progressive
Bits/(Pixel*Frame) : 0.097
Stream size : 2.18 GiB (85%)
Language : English
Default : Yes
Forced : No
Color range : Limited
Color primaries : BT.709
Transfer characteristics : BT.709
Matrix coefficients : BT.709
Audio #1
ID : 2
Format : AC-3
Format/Info : Audio Coding 3
Mode extension : CM (complete main)
Format settings, Endianness : Big
Codec ID : A_AC3
Duration : 1h 4mn
Bit rate mode : Constant
Bit rate : 384 Kbps
Channel(s) : 6 channels
Channel positions : Front: L C R, Side: L R, LFE
Sampling rate : 48.0 KHz
Bit depth : 16 bits
Compression mode : Lossy
Stream size : 177 MiB (7%)
Title : OmskBird Records
Language : Russian
Default : Yes
Forced : No
Audio #2
ID : 3
Format : AC-3
Format/Info : Audio Coding 3
Mode extension : CM (complete main)
Format settings, Endianness : Big
Codec ID : A_AC3
Duration : 1h 4mn
Bit rate mode : Constant
Bit rate : 384 Kbps
Channel(s) : 6 channels
Channel positions : Front: L C R, Side: L R, LFE
Sampling rate : 48.0 KHz
Bit depth : 16 bits
Compression mode : Lossy
Stream size : 177 MiB (7%)
Language : English
Default : No
Forced : No
Text #1
ID : 4
Format : UTF-8
Codec ID : S_TEXT/UTF8
Codec ID/Info : UTF-8 Plain Text
Language : Russian
Default : Yes
Forced : No
Text #2
ID : 5
Format : UTF-8
Codec ID : S_TEXT/UTF8
Codec ID/Info : UTF-8 Plain Text
Language : English
Default : No
Forced : No
Внимание! Раздача ведётся путём добавления новых серий; при каждом добавлении создаётся новый торрент. Чтобы начать докачку новой серии, пользователям необходимо сделать следующее:
(1) остановить скачивание,
(2) удалить старый торрент у себя из клиента (старые серии удалять не надо),
(3) скачать новый торрент и запустить его у себя в клиенте вместо старого, при этом указать клиенту путь в старую папку куда и должно происходить скачивание новых серий.
Ваш клиент при этом должен произвести хеширование (проверку) старой папки (если не производит сам - помогите ему сделать это), и будет докачивать только те серии которых у вас ещё нет. Старые серии при этом не удаляются, а продолжают раздаваться!
Eсли вы уже удалили старые серии, то предотвратить повторную закачку старых серий можно, отжав галочку в соответствующих местах при запуске нового торрента. По возможности, желательно не удалять старые серии как можно дольше чтобы релизёр не столько продолжал раздавать старые серии, а смог сконцентрироваться на новых.



Скачать Американская.история.ужасов.American.Horror.Story.(сезон.05).(Брэд.Фэлчак.Райан.Мерфи).[2015.ужасы.триллер.WEB-DL].[720p].[MVO.(OMSKBIRD.records)].+.Original.+.Eng.Sub.torrent без регистрации
Золото ЗОЛОТАЯ РАЗДАЧА! СКАЧАННОЕ НЕ ЗАСЧИТЫВАЕТСЯ! Золото
Дата: Зарегистрирован   [ Тип: внутренний ] Как тут cкачать?
MAGNET ссылка
MAGNET ссылка


Скачать .torrent

124 KB

Статус: проверено DHT
Скачан: торрент - 1565 раз, раздача полностью - 0 раз
Размер: 24,51 GB
Оценка:  - (Голосов: 0)
Поблагодарили: 0
Поделиться ссылкой на эту раздачу с друзьями:
В контактеFacebookОдноклассникиTwitterLivejournalМой МирLiveinternet
 

 
Показать сообщения:    


Вы не можете начинать темы
Вы не можете отвечать на сообщения
Вы не можете редактировать свои сообщения
Вы не можете удалять свои сообщения
Вы не можете голосовать в опросах
Вы не можете прикреплять файлы к сообщениям
Вы можете скачивать файлы