Loading...
Error

Скачать Мужики за работой / Men at Work (сезон 02) (Марк Сендроуски) [2012, ситком, WEB-DL] [MVO (Несмертельное оружие)]+[Eng] торрент без регистрации

 
Статистика раздачи
Размер:  3,42 GB   |    Скачан:  60 раз
Сидов:  1  [  0 KB/s  ]  
 
Автор Сообщение

МихаНЕзатор

[] 

Год выпуска: 2013
Страна: США
Студия: Sony Pictures Television Inc.
Жанр: ситком
Режиссёр: Марк Сендроуски / Mark Cendrowski
Продолжительность: ~22 мин.
Перевод: Многоголосый закадровый - [Несмертельное оружие]
Русские субтитры: нет

В ролях: Дэнни Мастерсон, Джеймс Лежер, Майкл Кэссиди, Адам Буш, Мередит Хагнер, Эми Смарт, Норин ДеВулф, Джулиан Морри,с Стефани Николь Лемелин, Метте Холт, Доминик Девор, Эмили Фокслер, Памела Мари, Майкл Дидрикссон, Мелисса Клер Иган, Нора Киркпатрик и др.

Описание: Главные персонажи сериала — работающий в престижном журнале парень по имени Майло и трое его друзей — Нил, Гиббс и Тайлер. После того, как Майло бросила девушка, они помогают ему справиться с депрессией и обрести уверенность в себе; правда, у самих друзей в личной жизни при этом тоже не все гладко.

Релиз от:

Качество: WEB-DL 400p
Формат: AVI
Видео кодек: XviD
Аудио кодек: AC3
Видео: 720x400 (1.80:1), 23.976 fps, XviD MPEG-4 ~1911 kbps avg, 0.28 bit/pixel
Аудио #1: 48 kHz, AC3 Dolby Digital, 2/0 (L,R) ch, ~192.00 kbps avg | Russian | MVO
Аудио #2: 48 kHz, AC3 Dolby Digital, 2/0 (L,R) ch, ~192.00 kbps avg | English | Original

АНОНСЫ ПОПУЛЯРНЫХ РАЗДАЧ

Эпизод: 01 «Упущенная возможность» (Missed Connections)
Эпизод: 02 «Сработает для Майло» (Will Work for Milo)
Эпизод: 03 «Новый босс» (The New Boss)
Эпизод: 04 «Сбавить обороты» (Downshift)
Эпизод: 05 «Хороший, плохой и Майло» (The Good, The Bad & The Milo)
Эпизод: 06 «Пионер Тайлер» (Tyler the Pioneer)
Эпизод: 07 «Дядюшка Гиббс» (Uncle Gibbs)
Эпизод: 08 «Гиббсорцизм» (The Gibbs-Orcism)
Эпизод: 09 «Пробуждение Джуд» (Jude Awakening)
Эпизод: 10 «Майло-пятое колесо» (Odd Milo Out)
General
Complete name : Men.At.Work.S02E01.Dual.WEB-DLRip.[Nesmertelnoe.oruzhie].avi
Format : AVI
Format/Info : Audio Video Interleave
File size : 350 MiB
Duration : 21mn 10s
Overall bit rate : 2 311 Kbps
Movie name : Мужики за работой / Сезон: 2 / Эпизод: 01 - Упущенная возможность
Director : ANTipiGo
Genre : Comedy
Writing application : VirtualDubMod 1.5.10.2 (build 2540/release)
Original source form/Name : TV-Serie
Copyright : Творческое объединение "Несмертельное оружие"
Comment : http://vk.com/nesmertelnoe_oruzhie
Video
ID : 0
Format : MPEG-4 Visual
Format profile : Advanced Simple@L5
Format settings, BVOP : 2
Format settings, QPel : No
Format settings, GMC : No warppoints
Format settings, Matrix : Default (MPEG)
Muxing mode : Packed bitstream
Codec ID : XVID
Codec ID/Hint : XviD
Duration : 21mn 10s
Bit rate : 1 912 Kbps
Width : 720 pixels
Height : 400 pixels
Display aspect ratio : 16:9
Frame rate : 23.976 fps
Color space : YUV
Chroma subsampling : 4:2:0
Bit depth : 8 bits
Scan type : Progressive
Compression mode : Lossy
Bits/(Pixel*Frame) : 0.277
Stream size : 290 MiB (83%)
Writing library : XviD 1.2.1 (UTC 2008-12-04)
Audio #1
ID : 1
Format : AC-3
Format/Info : Audio Coding 3
Mode extension : CM (complete main)
Codec ID : 2000
Duration : 21mn 10s
Bit rate mode : Constant
Bit rate : 192 Kbps
Channel(s) : 2 channels
Channel positions : Front: L R
Sampling rate : 48.0 KHz
Bit depth : 16 bits
Compression mode : Lossy
Stream size : 29.1 MiB (8%)
Alignment : Split accross interleaves
Interleave, duration : 42 ms (1.00 video frame)
Interleave, preload duration : 500 ms
Title : [RUS] MVO (Несмертельное оружие)
Audio #2
ID : 2
Format : AC-3
Format/Info : Audio Coding 3
Mode extension : CM (complete main)
Codec ID : 2000
Duration : 21mn 10s
Bit rate mode : Constant
Bit rate : 192 Kbps
Channel(s) : 2 channels
Channel positions : Front: L R
Sampling rate : 48.0 KHz
Bit depth : 16 bits
Compression mode : Lossy
Stream size : 29.1 MiB (8%)
Alignment : Split accross interleaves
Interleave, duration : 42 ms (1.00 video frame)
Interleave, preload duration : 500 ms
Title : [ENG] Original
Внимание! Раздача ведётся путём добавления новых серий; при каждом добавлении создётся новый торрент. Чтобы начать докачку новой серии, пользователям необходимо сделать следующее:
(1) остановить скачивание,
(2) удалить старый торрент у себя из клиента (старые серии удалять не надо),
(3) скачать новый торрент и запустить его у себя в клиенте вместо старого, при этом указать клиенту путь в старую папку куда и должно происходить скачивание новых серий.
Ваш клиент при этом должен произвести хеширование (проверку) старой папки (если не производит сам - помогите ему сделать это), и будет докачивать только те серии которых у вас ещё нет. Старые серии при этом не удаляются, а продолжают раздаваться!
Eсли вы уже удалили старые серии, то предотвратить повторную закачку старых серий можно, отжав галочку в соответсвующих местах при запуске нового торрента. По возможности, желательно не удалять старые серии как можно дольше чтобы релизёр не столько продолжал раздавать старые серии, а смог сконцентрироваться на новых.



Скачать Мужики.за.работой.Men.at.Work.(сезон.02).(Марк.Сендроуски).[2012.ситком.WEB-DL].[MVO.(Несмертельное.оружие)]+[Eng].torrent без регистрации
Золото ЗОЛОТАЯ РАЗДАЧА! СКАЧАННОЕ НЕ ЗАСЧИТЫВАЕТСЯ! Золото
Дата: Зарегистрирован   [ Тип: внутренний ] Как тут cкачать?
MAGNET ссылка
MAGNET ссылка


Скачать .torrent

19 KB

Статус: проверено DHT
Скачан: торрент - 60 раз, раздача полностью - 6 раз
Размер: 3,42 GB
Оценка:  - (Голосов: 0)
Поблагодарили: 0
Поделиться ссылкой на эту раздачу с друзьями:
В контактеFacebookОдноклассникиTwitterLivejournalМой МирLiveinternet
 

 
Показать сообщения:    


Вы не можете начинать темы
Вы не можете отвечать на сообщения
Вы не можете редактировать свои сообщения
Вы не можете удалять свои сообщения
Вы не можете голосовать в опросах
Вы не можете прикреплять файлы к сообщениям
Вы можете скачивать файлы