Loading...
Error

Скачать Охота на роботов / Runaway ( Майкл Крайтон) [1984, фантастика, боевик, триллер, криминал, BDRip-AVC] [DVO]+[AVO] торрент без регистрации

 
Статистика раздачи
Размер:  1,45 GB   |    Скачан:  48 раз
Сидов:  1  [  0 KB/s  ]  
 
Автор Сообщение

Marsianka

[] 



Страна: США
Жанр: фантастика, боевик, триллер, криминал
Год выпуска: 1984
Режиссер: Майкл Крайтон / Michael Crichton
В ролях: Том Селлек (Sgt. Jack R. Ramsay), Синтия Роудс (Officer Karen Thompson), Джин Симмонс (Dr. Charles Luther), Кёрсти Элли (Jackie Rogers), Стэн Шоу (Sgt. Marvin James), Дж. У. Бейли (Chief of Police), Джои Крамер (Bobby Ramsay), Крис Малки (David Johnson), Энн-Мари Мартин (Hooker at Bar), Майкл Пол Чан (Vectrocon Security Guard), Elizabeth Norment (Miss Shields, Reporter), Кэрол Тисдейл (Sally)

Описание:
Недалекое будущее. Полицейский Джек Рамси - сотрудник особого отдела по обезвреживанию поломанных или спятивших роботов. Он расследует случай странного сумасшествия робота, которое привело к гибели людей. Джек выясняет, что преступление спланировано человеком, изменившим программу робота. Но как только полицейский находит след преступников, злоумышленник похищает его десятилетнего сына и требует вернуть все попавшие в руки полиции материалы и документы о сверхновых микросхемах.



Продолжительность: 01:40:04
Перевод: Профессиональный (двухголосый, закадровый)[Екатеринбург Арт] + Авторский [Гаврилов Андрей]
Субтитры: Нет

Качество: BDRip-AVC
Контейнер: MKV
Видео: AVC; 1016x432 (2.35:1); ~1690 Kbps; 23,976 fps

Аудио№1: Russian: 48 kHz, АС3, 2 ch, 192 kbps [двухголосый, Екатеринбург Арт]
Аудио№2: Russian: 48 kHz, АС3, 2 ch, 192 kbps [одноголосый, Гаврилов]
Навигация по главам: есть


General
Unique ID : 188914816870997303629864032203924223597 (0x8E1FAB9724EE98BA1C6159E36A7AB66D)
Complete name : D:Охота на роботов.(1984).BDRIP_AVC.[-=DoMiNo=-]..mkv
Format : Matroska
Format version : Version 4 / Version 2
File size : 1.45 GiB
Duration : 1h 40mn
Overall bit rate : 2 079 Kbps
Movie name : Runaway
Writing application : XviD4PSP 7.0.177
Writing library : Lavf56.25.101
DATE : 1984
GENRE : Action, Crime, Sci-Fi
ENCODING_INFO : BluRay > MKV / H264 > X264 VBR-2P 1691kbps Custom / AC3 > COPY / AC3 > COPY
DEION : In the near future, a police officer specializes in malfunctioning robots. When a robot turns out to have been programmed to kill, he begins to uncover a homicidal plot to create killer robots... and his son becomes a target.
ITUNEXTC : mpaa|PG-13|300|
ACTORS : Tom Selleck, Cynthia Rhodes, Gene Simmons, Kirstie Alley
DIRECTOR : Michael Crichton
WRITER : Michael Crichton
COUNTRY : USA
IMDB_RATING : 5.9
Language : und
FILENAME : cover.png
Attachements : cover.png

Video
ID : 1
Format : AVC
Format/Info : Advanced Video Codec
Format profile : High@L4.1
Format settings, CABAC : Yes
Format settings, ReFrames : 12 frames
Codec ID : V_MPEG4/ISO/AVC
Duration : 1h 40mn
Bit rate : 1 691 Kbps
Width : 1 016 pixels
Height : 432 pixels
Display aspect ratio : 2.35:1
Frame rate mode : Constant
Frame rate : 23.976 fps
Color space : YUV
Chroma subsampling : 4:2:0
Bit depth : 8 bits
Scan type : Progressive
Bits/(Pixel*Frame) : 0.161
Stream size : 1.16 GiB (80%)
Writing library : x264 core 148 r2597M e86f3a1
Encoding settings : cabac=1 / ref=12 / deblock=1:-3:-3 / analyse=0x3:0x133 / me=umh / subme=11 / psy=1 / psy_rd=1.00:0.20 / mixed_ref=1 / me_range=32 / chroma_me=1 / trellis=2 / 8x8dct=1 / cqm=0 / deadzone=21,11 / fast_pskip=0 / chroma_qp_offset=-3 / threads=5 / lookahead_threads=1 / sliced_threads=0 / nr=0 / decimate=1 / interlaced=0 / bluray_compat=0 / constrained_intra=0 / bframes=11 / b_pyramid=2 / b_adapt=2 / b_bias=0 / direct=3 / weightb=1 / open_gop=0 / weightp=2 / keyint=230 / keyint_min=23 / scenecut=40 / intra_refresh=0 / rc=2pass / mbtree=0 / bitrate=1691 / ratetol=1.0 / qcomp=0.60 / qpmin=0 / qpmax=69 / qpstep=4 / cplxblur=20.0 / qblur=0.5 / ip_ratio=1.40 / pb_ratio=1.30 / aq=1:1.00
Language : English
Default : Yes
Forced : No
Color range : Limited
Color primaries : BT.709
Transfer characteristics : BT.709
Matrix coefficients : BT.709

Audio #1
ID : 2
Format : AC-3
Format/Info : Audio Coding 3
Mode extension : CM (complete main)
Format settings, Endianness : Big
Codec ID : A_AC3
Duration : 1h 40mn
Bit rate mode : Constant
Bit rate : 192 Kbps
Channel(s) : 2 channels
Channel positions : Front: L R
Sampling rate : 48.0 KHz
Bit depth : 32 bits
Compression mode : Lossy
Stream size : 137 MiB (9%)
Title : двухголосый, Екатеринбург Арт
Language : Russian
Default : Yes
Forced : No

Audio #2
ID : 3
Format : AC-3
Format/Info : Audio Coding 3
Format profile : Dolby Digital
Mode extension : CM (complete main)
Format settings, Endianness : Big
Codec ID : A_AC3
Duration : 1h 40mn
Bit rate mode : Constant
Bit rate : 192 Kbps
Channel(s) : 2 channels
Channel positions : Front: L R
Sampling rate : 48.0 KHz
Bit depth : 32 bits
Compression mode : Lossy
Stream size : 137 MiB (9%)
Title : одноголосый, Гаврилов
Language : Russian
Default : No
Forced : No

Menu
00:00:00.000 : :Глава 1
00:02:04.332 : :Глава 2
00:08:46.943 : :Глава 3
00:25:12.177 : :Глава 4
00:32:28.279 : :Глава 5
00:38:28.639 : :Глава 6
00:43:18.137 : :Глава 7
00:54:22.259 : :Глава 8
01:04:36.789 : :Глава 9
01:11:58.229 : :Глава 10
01:22:03.917 : :Глава 11
01:40:04.289 : :Глава 12







Скачать Охота.на.роботов.Runaway.(.Майкл.Крайтон).[1984.фантастика.боевик.триллер.криминал.BDRip-AVC].[DVO]+[AVO].torrent без регистрации
Золото ЗОЛОТАЯ РАЗДАЧА! СКАЧАННОЕ НЕ ЗАСЧИТЫВАЕТСЯ! Золото
Дата: Зарегистрирован   [ Тип: внутренний ] Как тут cкачать?
MAGNET ссылка
MAGNET ссылка


Скачать .torrent

15 KB

Статус: проверено DHT
Скачан: торрент - 48 раз, раздача полностью - 2 раз
Размер: 1,45 GB
Оценка:  5 (Голосов: 1)
Поблагодарили: 1
Поделиться ссылкой на эту раздачу с друзьями:
В контактеFacebookОдноклассникиTwitterLivejournalМой МирLiveinternet
 

 
Показать сообщения:    


Вы не можете начинать темы
Вы не можете отвечать на сообщения
Вы не можете редактировать свои сообщения
Вы не можете удалять свои сообщения
Вы не можете голосовать в опросах
Вы не можете прикреплять файлы к сообщениям
Вы можете скачивать файлы