Loading...
Error

Скачать Фарго / Fargo (сезон 02) (Мэтт Шекман и др.) [2015, драма, криминал, WEB-DLRip-AVC] [MVO (NewStudio)] торрент без регистрации

 
Статистика раздачи
Размер:  5,64 GB   |    Скачан:  1216 раз
Сидов:  1  [  0 KB/s  ]  
 
Автор Сообщение

МихаНЕзатор

[] 



✧ ФАРГО ✧


Информация о фильме:
✦Название: ФАРГО
✦Оригинальное название: Fargo
✦Год выхода: 2015
✦Жанр: Драма, криминал
✦Режиссер: Мэтт Шекман, Скотт Уинант, Адам Бернштейн

✦В ролях: Патрик Уилсон, Кирстен Данст, Джесси Племонс, Тед Дэнсон, Джин Смарт, Энгус Сэмпсон, Адам Аркин, Брэд Манн, Зан МакКларнон, Эмили Хейн, Кейр О'Доннелл, Жюль Хобсон, Анна Каммер, Дэн Бирн, Тодд Манн, Райан О'Нан, Джесси Коллин, Дэйв Бурчилл

Описание фильма: События в новых эпизодах разворачиваются в 1979 году в городах Су-Фолс (Южная Дакота) и Луверн (Миннесота). Молодой сержант национальной гвардии Лу Солверсон (Патрик Уилсон), недавно вернувшийся из Вьетнама, расследует дело, в котором переплелись местная банда, крупный мафиозный синдикат, косметолог Пегги Блумквист (Кирстен Данст) и ее муж Эд — помощник местного мясника. Распутать этот клубок Лу помогает шериф Хэнк Ларссон. В ходе расследования напарникам предстоит познакомиться с изрядным количеством незаурядных персонажей, как, например, юрист Карл Везерс — ветеран войны во Вьетнаме, пьяница, обладающий невероятным даром красноречия.



✦ Страна: США
✦ Продолжительность: 00:50:00 серия
✦ Перевод: Профессиональный многоголосый - NewStudio
✦ Субтитры: отсутствуют

Информация о файле:
✦ Кодек: H.264
✦ Формат: MKV
✦ Качество: WEB-DLRip-AVC
✦ Видео: ~ 1020 kbps, 1020x572
✦ Аудио: AC3, 6 ch, 384 kbps

АНОНСЫ ПОПУЛЯРНЫХ РАЗДАЧ


Торрент обновлён, добавлена 10-я серия!
General
Unique ID : 176569315657187020124280124997427792943 (0x84D60362EFF4DC0E82478808B0540C2F)
Complete name : F:СериалыФарго [10] (2015) WEB-DLRIP_AVCFargo.[s02e01].WEBDLRIP_AVC.[-=DoMiNo=-].NewStudio.TV.mkv
Format : Matroska
Format version : Version 4 / Version 2
File size : 482 MiB
Duration : 49mn 55s
Overall bit rate : 1 350 Kbps
Writing application : XviD4PSP 7.0.177
Writing library : Lavf56.25.101
ENCODING_INFO : MATROSKA,WEBM > MKV / H264 > X264 CRF 19.0 Custom / AC3 > COPY

Video
ID : 1
Format : AVC
Format/Info : Advanced Video Codec
Format profile : High@L4.1
Format settings, CABAC : Yes
Format settings, ReFrames : 12 frames
Codec ID : V_MPEG4/ISO/AVC
Duration : 49mn 55s
Bit rate : 939 Kbps
Width : 1 020 pixels
Height : 572 pixels
Display aspect ratio : 16:9
Frame rate mode : Constant
Frame rate : 23.976 fps
Color space : YUV
Chroma subsampling : 4:2:0
Bit depth : 8 bits
Scan type : Progressive
Bits/(Pixel*Frame) : 0.067
Stream size : 335 MiB (70%)
Writing library : x264 core 148 r2597M e86f3a1
Encoding settings : cabac=1 / ref=12 / deblock=1:-3:-3 / analyse=0x3:0x133 / me=umh / subme=10 / psy=1 / psy_rd=1.00:0.10 / mixed_ref=1 / me_range=32 / chroma_me=1 / trellis=2 / 8x8dct=1 / cqm=0 / deadzone=21,11 / fast_pskip=0 / chroma_qp_offset=-3 / threads=5 / lookahead_threads=1 / sliced_threads=0 / nr=0 / decimate=1 / interlaced=0 / bluray_compat=0 / constrained_intra=0 / bframes=11 / b_pyramid=2 / b_adapt=2 / b_bias=0 / direct=1 / weightb=1 / open_gop=0 / weightp=2 / keyint=230 / keyint_min=23 / scenecut=40 / intra_refresh=0 / rc=crf / mbtree=0 / crf=19.0 / qcomp=0.60 / qpmin=19 / qpmax=69 / qpstep=4 / ip_ratio=1.40 / pb_ratio=1.30 / aq=1:1.00
Language : English
Default : Yes
Forced : No
Color range : Limited
Color primaries : BT.709
Transfer characteristics : BT.709
Matrix coefficients : BT.709

Audio
ID : 2
Format : AC-3
Format/Info : Audio Coding 3
Mode extension : CM (complete main)
Format settings, Endianness : Big
Codec ID : A_AC3
Duration : 49mn 55s
Bit rate mode : Constant
Bit rate : 384 Kbps
Channel(s) : 6 channels
Channel positions : Front: L C R, Side: L R, LFE
Sampling rate : 48.0 KHz
Bit depth : 32 bits
Compression mode : Lossy
Stream size : 137 MiB (28%)
Title : NewStudio.TV
Language : Russian
Default : Yes
Forced : No



Скачать Фарго.Fargo.(сезон.02).(Мэтт.Шекман.и.др.).[2015.драма.криминал.WEB-DLRip-AVC].[MVO.(NewStudio)].torrent без регистрации
Золото ЗОЛОТАЯ РАЗДАЧА! СКАЧАННОЕ НЕ ЗАСЧИТЫВАЕТСЯ! Золото
Дата: Зарегистрирован   [ Тип: внутренний ] Как тут cкачать?
MAGNET ссылка
MAGNET ссылка


Скачать .torrent

16 KB

Статус: проверено DHT
Скачан: торрент - 1216 раз, раздача полностью - 78 раз
Размер: 5,64 GB
Оценка:  5 (Голосов: 1)
Поблагодарили: 2
Поделиться ссылкой на эту раздачу с друзьями:
В контактеFacebookОдноклассникиTwitterLivejournalМой МирLiveinternet
 

 
Показать сообщения:    


Вы не можете начинать темы
Вы не можете отвечать на сообщения
Вы не можете редактировать свои сообщения
Вы не можете удалять свои сообщения
Вы не можете голосовать в опросах
Вы не можете прикреплять файлы к сообщениям
Вы можете скачивать файлы