Loading...
Error

Скачать Призрак замка Кентервиль / Das Gespenst von Canterville (Изабель Клефельд) [2005, комедия, DVDRip-AVC] [MVO] торрент без регистрации

 
Статистика раздачи
Размер:  2,15 GB   |    Скачан:  57 раз
Сидов:  1  [  0 KB/s  ]  
 
Автор Сообщение

Marsianka

[] 

Информация о фильме
Название: Призрак замка Кентервиль
Оригинальное название: Das Gespenst von Canterville
Год выхода: 2005
Жанр: комедия
Режиссер: Изабель Клефельд
В ролях: Клаус Й. Берендт, Саския Вестер, Армин Роде, Мартин Курц, Андреас Шмидт, Анна Бёттхер…

О фильме: 10-летний Пол боится всего — воды, животных, темноты… Чтобы попытаться вылечить мальчика от всех этик фобий, родители привозят его на каникулы в старинный шотландский замок. Но как оказалось, у замка есть своя собственная тайна — здесь обитает призрак.
У сэра Саймона (так зовут привидение) тоже свои проблемы — его появление ни у кого не вызывает ужаса, а в прошлом у него произошло что-то очень важное, о чем он никак не может вспомнить. Сэр Саймон ужасно мучается еще и потому, что Кентервиль собираются продавать, и тогда он останется без своего родового замка. Пол, подружившись со старым призраком, хочет ему помочь. Но чтобы помочь сэру Саймону, мальчик должен сначала избавиться от собственных страхов.



Выпущено: Германия / Roxy Film GmbH, Schesch Filmproduktion
Продолжительность: 01:30:16
Перевод: Профессиональный (многоголосый, закадровый)

Файл
Кодек: MPEG-4 AVC (MKV)
Качество: DVDRip-AVC
Видео: AVC, 1024x576, 2500 Kbps
Звук: Русский, Немецкий: AC3, 6 ch, 448 kbps
Субтитры: нет

General
Unique ID : 241017121942451353598184832187518899549 (0xB552358FD41CAD91836B3198C157555D)
Complete name : D:ДИСК1.ФИЛЬМЫПризрак замка Кентервиль Das Gespenst von Canterville (2005)Das Gespenst von Canterville (2005) DVDRip- AVC.mkv
Format : Matroska
Format version : Version 4 / Version 2
File size : 2.15 GiB
Duration : 1h 30mn
Overall bit rate mode : Variable
Overall bit rate : 3 402 Kbps
Movie name : Release by ARHANGEL&vamo
Encoded date : UTC 2015-10-14 22:21:41
Writing application : mkvmerge v8.2.0 ('World of Adventure') 64bit
Writing library : Lavf56.25.101
ENCODING_INFO : DVD > MKV / MPEG2 > X264 CBR 2500kbps Custom / AC3 > COPY / AC3 > COPY

Video
ID : 1
Format : AVC
Format/Info : Advanced Video Codec
Format profile : High@L4.1
Format settings, CABAC : Yes
Format settings, ReFrames : 8 frames
Codec ID : V_MPEG4/ISO/AVC
Duration : 1h 30mn
Bit rate mode : Variable
Bit rate : 2 500 Kbps
Width : 1 024 pixels
Height : 576 pixels
Display aspect ratio : 16:9
Frame rate mode : Constant
Frame rate : 25.000 fps
Color space : YUV
Chroma subsampling : 4:2:0
Bit depth : 8 bits
Scan type : Progressive
Bits/(Pixel*Frame) : 0.170
Stream size : 1.54 GiB (72%)
Writing library : x264 core 148 r2597M e86f3a1
Encoding settings : cabac=1 / ref=8 / deblock=1:-3:-3 / analyse=0x3:0x133 / me=umh / subme=8 / psy=1 / psy_rd=1.00:0.15 / mixed_ref=1 / me_range=16 / chroma_me=1 / trellis=2 / 8x8dct=1 / cqm=0 / deadzone=21,11 / fast_pskip=1 / chroma_qp_offset=-3 / threads=8 / lookahead_threads=1 / sliced_threads=0 / nr=0 / decimate=1 / interlaced=0 / bluray_compat=0 / constrained_intra=0 / bframes=6 / b_pyramid=2 / b_adapt=0 / b_bias=0 / direct=3 / weightb=1 / open_gop=0 / weightp=0 / keyint=7 / keyint_min=4 / scenecut=40 / intra_refresh=0 / rc_lookahead=30 / rc=cbr / mbtree=1 / bitrate=2500 / ratetol=1.0 / qcomp=0.60 / qpmin=0 / qpmax=69 / qpstep=4 / vbv_maxrate=2500 / vbv_bufsize=3000 / nal_hrd=vbr / filler=0 / ip_ratio=1.40 / aq=1:1.00
Default : Yes
Forced : No
DURATION : 01:30:16.800000000
NUMBER_OF_FRAMES : 135420
NUMBER_OF_BYTES : 1692644212
_STATISTICS_WRITING_APP : mkvmerge v8.2.0 ('World of Adventure') 64bit
_STATISTICS_WRITING_DATE_UTC : 2015-10-14 22:21:41
_STATISTICS_TAGS : BPS DURATION NUMBER_OF_FRAMES NUMBER_OF_BYTES

Audio #1
ID : 2
Format : AC-3
Format/Info : Audio Coding 3
Mode extension : CM (complete main)
Format settings, Endianness : Big
Codec ID : A_AC3
Duration : 1h 30mn
Bit rate mode : Constant
Bit rate : 448 Kbps
Channel(s) : 6 channels
Channel positions : Front: L C R, Side: L R, LFE
Sampling rate : 48.0 KHz
Compression mode : Lossy
Stream size : 289 MiB (13%)
Language : Russian
Default : Yes
Forced : No
DURATION : 01:30:16.768000000
NUMBER_OF_FRAMES : 169274
NUMBER_OF_BYTES : 303339008
_STATISTICS_WRITING_APP : mkvmerge v8.2.0 ('World of Adventure') 64bit
_STATISTICS_WRITING_DATE_UTC : 2015-10-14 22:21:41
_STATISTICS_TAGS : BPS DURATION NUMBER_OF_FRAMES NUMBER_OF_BYTES

Audio #2
ID : 3
Format : AC-3
Format/Info : Audio Coding 3
Mode extension : CM (complete main)
Format settings, Endianness : Big
Codec ID : A_AC3
Duration : 1h 30mn
Bit rate mode : Constant
Bit rate : 448 Kbps
Channel(s) : 6 channels
Channel positions : Front: L C R, Side: L R, LFE
Sampling rate : 48.0 KHz
Compression mode : Lossy
Stream size : 289 MiB (13%)
Language : German
Default : No
Forced : No
DURATION : 01:30:16.768000000
NUMBER_OF_FRAMES : 169274
NUMBER_OF_BYTES : 303339008
_STATISTICS_WRITING_APP : mkvmerge v8.2.0 ('World of Adventure') 64bit
_STATISTICS_WRITING_DATE_UTC : 2015-10-14 22:21:41
_STATISTICS_TAGS : BPS DURATION NUMBER_OF_FRAMES NUMBER_OF_BYTES

Menu
00:00:00.000 : :Глава 1
00:05:29.308 : :Глава 2
00:09:58.560 : :Глава 3
00:15:05.867 : :Глава 4
00:19:53.337 : :Глава 5
00:24:36.642 : :Глава 6
00:29:03.251 : :Глава 7
00:34:52.909 : :Глава 8
00:39:57.524 : :Глава 9
00:45:02.910 : :Глава 10
00:49:53.542 : :Глава 11
00:54:50.960 : :Глава 12
00:59:36.437 : :Глава 13
01:05:05.115 : :Глава 14
01:09:57.599 : :Глава 15
01:14:58.941 : :Глава 16
01:20:00.343 : :Глава 17
01:29:44.900 : :Глава 18



Скачать Призрак.замка.Кентервиль.Das.Gespenst.von.Canterville.(Изабель.Клефельд).[2005.комедия.DVDRip-AVC].[MVO].torrent без регистрации
Золото ЗОЛОТАЯ РАЗДАЧА! СКАЧАННОЕ НЕ ЗАСЧИТЫВАЕТСЯ! Золото
Дата: Зарегистрирован   [ Тип: внутренний ] Как тут cкачать?
MAGNET ссылка
MAGNET ссылка


Скачать .torrent

12 KB

Статус: проверено DHT
Скачан: торрент - 57 раз, раздача полностью - 33 раз
Размер: 2,15 GB
Оценка:  - (Голосов: 0)
Поблагодарили: 1
Поделиться ссылкой на эту раздачу с друзьями:
В контактеFacebookОдноклассникиTwitterLivejournalМой МирLiveinternet
 

 
Показать сообщения:    


Вы не можете начинать темы
Вы не можете отвечать на сообщения
Вы не можете редактировать свои сообщения
Вы не можете удалять свои сообщения
Вы не можете голосовать в опросах
Вы не можете прикреплять файлы к сообщениям
Вы можете скачивать файлы