Loading...
Error

Скачать Гнев / Heat (Дик Ричардс, Джерри Джеймсон) [1986, боевик, триллер, драма, WEB-DLRip-AVC] [AVO]+[MVO]+[Оригинал]+[Sub] торрент без регистрации

 
Статистика раздачи
Размер:  2,27 GB   |    Скачан:  47 раз
Сидов:  1  [  0 KB/s  ]  
 
Автор Сообщение

Marsianka

[] 


Гнев / Heat (1986) WEB-DLRip-AVC

Производство: США, Elliott Kastner Productions, Escalante Productions
Жанр: боевик, триллер, драма

Режиссер: Дик Ричардс, Джерри Джеймсон
Актеры: Бёрт Рейнолдс, Карен Янг, Питер МакНикол, Ховард Хессеман, Нилл Бэрри, Дайана Скаруид, Джозеф Масколо, Элфи Уайз, Дебора Раш, Уенделл Бертон

Описание:
Холли, молодая проститутка из Лас-Вегаса, оказывается жертвой садистских действий со стороны Дэнни Де Марко, сынка крупного мафиози. Она обращается за помощью к своему соседу Нику Эскаланте по прозвищу Мексиканец, который специализируется в качестве частного агента по спасению из затруднительных положений, но он не очень-то хочет вмешиваться в хорошо известные ему дела преступных группировок. Однако из дружеских побуждений Ник соглашается на опасное отмщение. Одновременно он уступает настойчивым просьбам юного Сайраса Кинника, отпрыска миллионера, желающего научиться давать отпор в драке. Эскаланте, которому надоела жалкая жизнь одинокого авантюриста, решает в гневе порвать со всеми проблемами сразу, вдобавок выиграть много денег в рулетку и уехать прочь из Лас-Вегаса.



Релиз от: FAGOT100 (NNM-CLUB)
Продолжительность: 01:42:53
Качество видео: WEB-DLRip-AVC

Видео: AVC, 1024x576 (16:9), 23.976 fps, 2 649 Kbps (0.187 bit/pixel)

Перевод: Авторский (одноголосый, закадровый) А.Михалёв, профессиональный (многоголосый, закадровый)
Язык субтитров: Английский
Вид субтитров: Вшитые отключаемые
Аудио #1: AC-3, 48.0 KHz, 2 ch, 192 Kbps, CBR (Russian) - авторский
Аудио #2: AC-3, 48.0 KHz, 2 ch, 192 Kbps, CBR (Russian) - многоголосый
Аудио #3: AAC LC, 48.0 KHz, 2 ch, 118 kbps (English) - оригинал

Формат : Matroska
Версия формата : Version 2
Размер файла : 2,27 Гбайт
Продолжительность : 1 ч. 42 м.
Общий поток : 3152 Кбит/сек
Дата кодирования : UTC 2015-09-03 17:20:58
Программа кодирования : mkvmerge v5.3.0 ('I could have danced') built on Feb 9 2012 10:38:07
Библиотека кодирования : libebml v1.2.3 + libmatroska v1.3.0
Attachment : Yes

Видео
Идентификатор : 1
Формат : AVC
Формат/Информация : Advanced Video Codec
Профиль формата : High@L4.1
Параметр CABAC формата : Да
Параметр ReFrames формата : 10 кадров
Идентификатор кодека : V_MPEG4/ISO/AVC
Продолжительность : 1 ч. 42 м.
Номинальный битрейт : 2649 Кбит/сек
Ширина : 1024 пикселя
Высота : 576 пикселей
Соотношение сторон : 16:9
Режим частоты кадров : Постоянный
Частота кадров : 23,976 кадра/сек
Цветовое пространство : YUV
Субдискретизация насыщенности : 4:2:0
Битовая глубина : 8 бит
Тип развёртки : Прогрессивная
Бит/(Пиксели*Кадры) : 0.187
Библиотека кодирования : x264 core 146 r2538 121396c
Настройки программы : cabac=1 / ref=10 / deblock=1:-2:-2 / analyse=0x3:0x133 / me=umh / subme=10 / psy=1 / psy_rd=1.00:0.00 / mixed_ref=1 / me_range=32 / chroma_me=1 / trellis=2 / 8x8dct=1 / cqm=0 / deadzone=21,11 / fast_pskip=0 / chroma_qp_offset=-2 / threads=12 / lookahead_threads=1 / sliced_threads=0 / nr=0 / decimate=0 / interlaced=0 / bluray_compat=0 / constrained_intra=0 / bframes=6 / b_pyramid=2 / b_adapt=2 / b_bias=0 / direct=3 / weightb=1 / open_gop=0 / weightp=2 / keyint=240 / keyint_min=23 / scenecut=40 / intra_refresh=0 / rc=2pass / mbtree=0 / bitrate=2649 / ratetol=1.0 / qcomp=0.60 / qpmin=0 / qpmax=69 / qpstep=4 / cplxblur=20.0 / qblur=0.5 / ip_ratio=1.40 / pb_ratio=1.30 / aq=1:1.00
Язык : English
Default : Да
Forced : Нет

Аудио #1
Идентификатор : 2
Формат : AC-3
Формат/Информация : Audio Coding 3
Расширение режима : CM (complete main)
Параметр Endianness формата : Big
Идентификатор кодека : A_AC3
Продолжительность : 1 ч. 42 м.
Вид битрейта : Постоянный
Битрейт : 192 Кбит/сек
Каналы : 2 канала
Расположение каналов : Front: L R
Частота : 48,0 КГц
Битовая глубина : 16 бит
Метод сжатия : С потерями
Задержка видео : 22 с.
Размер потока : 141 Мбайт (6%)
Заголовок : Авторский А Михалеы
Язык : Russian
Default : Да
Forced : Нет

Аудио #2
Идентификатор : 3
Формат : AC-3
Формат/Информация : Audio Coding 3
Расширение режима : CM (complete main)
Параметр Endianness формата : Big
Идентификатор кодека : A_AC3
Продолжительность : 1 ч. 42 м.
Вид битрейта : Постоянный
Битрейт : 192 Кбит/сек
Каналы : 2 канала
Расположение каналов : Front: L R
Частота : 48,0 КГц
Битовая глубина : 16 бит
Метод сжатия : С потерями
Задержка видео : 24 мс.
Размер потока : 141 Мбайт (6%)
Заголовок : Профессиональный многоголосый
Язык : Russian
Default : Нет
Forced : Нет

Аудио #3
Идентификатор : 4
Формат : AAC
Формат/Информация : Advanced Audio Codec
Профиль формата : LC
Идентификатор кодека : A_AAC
Продолжительность : 1 ч. 42 м.
Каналы : 2 канала
Расположение каналов : Front: L R
Частота : 48,0 КГц
Метод сжатия : С потерями
Заголовок : оригинал
Язык : English
Default : Нет
Forced : Нет

Текст
Идентификатор : 5
Формат : UTF-8
Идентификатор кодека : S_TEXT/UTF8
Идентификатор кодека/Информация : UTF-8 Plain Text
Язык : English
Default : Да
Forced : Нет

Меню
00:00:00.000 : en:Chapter 1
00:05:17.000 : en:Chapter 2
00:12:09.000 : en:Chapter 3
00:21:18.000 : en:Chapter 4
00:28:44.000 : en:Chapter 5
00:39:52.000 : en:Chapter 6
00:46:42.000 : en:Chapter 7
00:53:49.000 : en:Chapter 8
01:00:55.000 : en:Chapter 9
01:09:43.000 : en:Chapter 10
01:15:34.000 : en:Chapter 11
01:25:23.000 : en:Chapter 12
01:32:30.000 : en:Chapter 13
01:40:16.000 : en:Chapter 14



Скачать Гнев.Heat.(Дик.Ричардс.Джерри.Джеймсон).[1986.боевик.триллер.драма.WEB-DLRip-AVC].[AVO]+[MVO]+[Оригинал]+[Sub].torrent без регистрации
Золото ЗОЛОТАЯ РАЗДАЧА! СКАЧАННОЕ НЕ ЗАСЧИТЫВАЕТСЯ! Золото
Дата: Зарегистрирован   [ Тип: внутренний ] Как тут cкачать?
MAGNET ссылка
MAGNET ссылка


Скачать .torrent

12 KB

Статус: проверено DHT
Скачан: торрент - 47 раз, раздача полностью - 1 раз
Размер: 2,27 GB
Оценка:  - (Голосов: 0)
Поблагодарили: 1
Поделиться ссылкой на эту раздачу с друзьями:
В контактеFacebookОдноклассникиTwitterLivejournalМой МирLiveinternet
 

 
Показать сообщения:    


Вы не можете начинать темы
Вы не можете отвечать на сообщения
Вы не можете редактировать свои сообщения
Вы не можете удалять свои сообщения
Вы не можете голосовать в опросах
Вы не можете прикреплять файлы к сообщениям
Вы можете скачивать файлы