Loading...
Error

Скачать Добрый болтун / Влюбленный гастролер / Sweet Talker (Майкл Дженкинс / Michael Jenkins) [1991, Криминальная комедия, DVDRip] [AVO] (Юрий Живов) + [Orig] торрент без регистрации

 
Статистика раздачи
Размер:  1,35 GB   |    Скачан:  52 раза

Полного источника не было: 30 минут

 
Автор Сообщение

leon030982

[] 

Добрый болтун / Влюбленный гастролер / Добрый болтун / Sweet Talker


Год выпуска: 1991
Страна: Австралия
Жанр: Криминальная комедия
Продолжительность: 01:28:19
Перевод: Авторский (одноголосый, закадровый) [Юрий Живов]
(перевел как Добрый болтун)
Cубтитры: нет
Оригинальная аудиодорожка: английский

Режиссер: Майкл Дженкинс / Michael Jenkins

В ролях: Брайан Браун, Карен Аллен, Джастин Росниак, Крис Хейвуд, Билл Керр, Брюс Спенс, Брюс Майлз, Пол Чабб, Питер Хехир, Дон Баркер


Артистичный мошенник Гарри Рейнолдс выходит из тюрьмы на свободу, но его одолевают новые идеи. Гарри отправляется в городок на берегу океана, где убеждает жителей вкладывать большие деньги в реконструкцию старого корабля и в строительство парка. Но совершенно не вовремя обаятельный пройдоха влюбляется в Джулию, хозяйку отеля…

СЭМПЛ

Качество: DVDRip
Формат: AVI
Видео кодек: XviD
Аудио кодек: AC3
Видео: XviD build 46, 640x480 (1.33:1), 23.976 fps, 1794 kbps avg, 0.24 bit/pixel
Аудио #1: AC3 Dolby Digital, 48000Hz, 2/0 (L,R) ch (stereo), 192.00 kbps avg [AVO]
Аудио #2: 48 kHz, MPEG Layer 3, 2 ch, ~192.00 kbps avg [Eng]

Цитата:

Дорожка с Ю. Живовым синхронизирована, ремастерирована, преобразована в СТЕРЕО и наложена ale_x2008 при помощи Sony Vegas и VirtualDubMod.
За оцифрованную с VHS дорожку благодарим - alenavova
Релиз
Влюбленный гастролер - Sweet Talker (by Edich2).avi
Format : AVI
Format/Info : Audio Video Interleave
File size : 1.35 GiB
Duration : 1h 28mn
Overall bit rate : 2 192 Kbps
Writing application : VirtualDubMod 1.5.10.2 (build 2540/release)
Writing library : VirtualDubMod build 2540/release
Video
ID : 0
Format : MPEG-4 Visual
Format profile : Advanced Simple@L5
Format settings, BVOP : 2
Format settings, QPel : No
Format settings, GMC : No warppoints
Format settings, Matrix : Default (H.263)
Codec ID : XVID
Codec ID/Hint : XviD
Duration : 1h 28mn
Bit rate : 1 794 Kbps
Width : 640 pixels
Height : 480 pixels
Display aspect ratio : 4:3
Frame rate : 23.976 fps
Color space : YUV
Chroma subsampling : 4:2:0
Bit depth : 8 bits
Scan type : Progressive
Compression mode : Lossy
Bits/(Pixel*Frame) : 0.244
Stream size : 1.11 GiB (82%)
Writing library : XviD 1.1.2 (UTC 2006-11-01)
Audio #1
ID : 1
Format : AC-3
Format/Info : Audio Coding 3
Mode extension : CM (complete main)
Format settings, Endianness : Big
Codec ID : 2000
Duration : 1h 28mn
Bit rate mode : Constant
Bit rate : 192 Kbps
Channel(s) : 2 channels
Channel positions : Front: L R
Sampling rate : 48.0 KHz
Bit depth : 16 bits
Compression mode : Lossy
Stream size : 121 MiB (9%)
Alignment : Split accross interleaves
Interleave, duration : 42 ms (1.00 video frame)
Interleave, preload duration : 500 ms
Audio #2
ID : 2
Format : MPEG Audio
Format version : Version 1
Format profile : Layer 3
Codec ID : 55
Codec ID/Hint : MP3
Duration : 1h 28mn
Bit rate mode : Constant
Bit rate : 192 Kbps
Channel(s) : 2 channels
Sampling rate : 48.0 KHz
Compression mode : Lossy
Stream size : 121 MiB (9%)
Alignment : Aligned on interleaves
Interleave, duration : 42 ms (1.00 video frame)
Interleave, preload duration : 504 ms



Скачать Добрый.болтун.Влюбленный.гастролер.Sweet.Talker.(Майкл.Дженкинс.Michael.Jenkins).[1991.Криминальная.комедия.DVDRip].[AVO].(Юрий.Живов).+.[Orig].torrent без регистрации
Золото ЗОЛОТАЯ РАЗДАЧА! СКАЧАННОЕ НЕ ЗАСЧИТЫВАЕТСЯ! Золото
Дата: Зарегистрирован   [ Тип: внутренний ] Как тут cкачать?
MAGNET ссылка
MAGNET ссылка


Скачать .torrent

14 KB

Статус: проверено DHT
Скачан: торрент - 52 раз, раздача полностью - 6 раз
Размер: 1,35 GB
Оценка:  - (Голосов: 0)
Поблагодарили: 0
Поделиться ссылкой на эту раздачу с друзьями:
В контактеFacebookОдноклассникиTwitterLivejournalМой МирLiveinternet
 

 
Показать сообщения:    


Вы не можете начинать темы
Вы не можете отвечать на сообщения
Вы не можете редактировать свои сообщения
Вы не можете удалять свои сообщения
Вы не можете голосовать в опросах
Вы не можете прикреплять файлы к сообщениям
Вы можете скачивать файлы