Loading...
Error

Скачать Месть / Revenge (Тони Скотт) [1990, Боевик, триллер, драма, мелодрама, криминал, HDRip] Театральная версия торрент без регистрации

 
Статистика раздачи
Размер:  749 MB   |    Скачан:  86 раз

Полного источника не было: 4 месяца 21 день

 
Автор Сообщение

Шкипер

[] 


Месть / Revenge


Год выпуска: 1990
Выпущено: США, Мексика
Жанр: Боевик, триллер, драма, мелодрама, криминал
Продолжительность: 02:04:01
Перевод: Профессиональный (полное дублирование)
Субтитры: Английские (Частично)

Режиссер: Тони Скотт

В ролях: Кевин Костнер (Cochran), Мэделин Стоу (Miryea), Энтони Куинн (Tibey), Хоакин Мартинес (Mauro), Мигель Феррер (Amador), Томас Милиан (Cesar), Джеймс Гэммон (Texan), Джон Легуизамо (Ignacio), Джесси Корти (Madero), Сэлли Кёркленд (Rock Star), Луис Де Икаса (Ramon), Херардо Сепеда (Elefante)
Дублёры: Вадим Андреев (Cochran), Анна Каменкова (Miryea), Рогволд Суховерко (Tibey), Борис Быстров (Mauro), Владислав Баландин (Cesar), Даниил Нетребин (Texan), Владимир Герасимов (Madero), Ирина Савина (Rock Star), Вадим Захарченко (Ibarra), Олег Голубицкий

Описание: Джей Кокрэн, летчик ВВС США, уволившись из армии, принимает приглашение старого приятеля Тибурона Мендеса, мексиканского латифундиста, политика и, вероятно, крупного мафиози. Приехав в гости в Мексику, где, впрочем, Кокрэн приобрел небольшую хижину в уединенном горном уголке, и встретив молодую и красивую Мирию, жену Мендеса, он, забыв об опасности, отдается вспыхнувшему страстному чувству.







Качество: HDRip
Формат: AVI
Видео кодек: XviD
Аудио кодек: MP3
Видео: 608x256 (2.38:1), 23.976 fps, XviD build 73 ~707 kbps avg, 0.19 bit/pixel
Аудио: 48 kHz, MPEG Layer 3, 2 ch, ~128.00 kbps avg
General
Complete name : D:Изготовление риповMest.HDRip.by shkiper.avi
Format : AVI
Format/Info : Audio Video Interleave
File size : 749 MiB
Duration : 2h 4mn
Overall bit rate : 845 Kbps
Writing application : VirtualDubMod 1.5.10.3 | www.virtualdub-fr.org || (build 2550/release)
Writing library : VirtualDubMod build 2550/release

Video
ID : 0
Format : MPEG-4 Visual
Format profile : Advanced Simple@L5
Format settings, BVOP : 1
Format settings, QPel : No
Format settings, GMC : No warppoints
Format settings, Matrix : Custom
Codec ID : XVID
Codec ID/Hint : XviD
Duration : 2h 4mn
Bit rate : 708 Kbps
Width : 608 pixels
Height : 256 pixels
Display aspect ratio : 2.40:1
Frame rate : 23.976 fps
Color space : YUV
Chroma subsampling : 4:2:0
Bit depth : 8 bits
Scan type : Progressive
Compression mode : Lossy
Bits/(Pixel*Frame) : 0.190
Stream size : 628 MiB (84%)
Writing library : XviD 73

Audio
ID : 1
Format : MPEG Audio
Format version : Version 1
Format profile : Layer 3
Mode : Joint stereo
Mode extension : MS Stereo
Codec ID : 55
Codec ID/Hint : MP3
Duration : 2h 3mn
Bit rate mode : Constant
Bit rate : 128 Kbps
Channel(s) : 2 channels
Sampling rate : 48.0 KHz
Compression mode : Lossy
Stream size : 113 MiB (15%)
Alignment : Aligned on interleaves
Interleave, duration : 42 ms (1.00 video frame)
Interleave, preload duratio : 504 ms
Writing library : LAME3.99r
Encoding settings : -m j -V 4 -q 2 -lowpass 17 -b 128





Скачать Месть.Revenge.(Тони.Скотт).[1990.Боевик.триллер.драма.мелодрама.криминал.HDRip].Театральная.версия.torrent без регистрации
Золото ЗОЛОТАЯ РАЗДАЧА! СКАЧАННОЕ НЕ ЗАСЧИТЫВАЕТСЯ! Золото
Дата: Зарегистрирован   [ Тип: внутренний ] Как тут cкачать?
MAGNET ссылка
MAGNET ссылка


Скачать .torrent

15 KB

Статус: * не проверено
Скачан: торрент - 86 раз, раздача полностью - 12 раз
Размер: 749 MB
Оценка:  3 (Голосов: 1)
Поблагодарили: 0
Поделиться ссылкой на эту раздачу с друзьями:
В контактеFacebookОдноклассникиTwitterLivejournalМой МирLiveinternet
 

 
Показать сообщения:    


Вы не можете начинать темы
Вы не можете отвечать на сообщения
Вы не можете редактировать свои сообщения
Вы не можете удалять свои сообщения
Вы не можете голосовать в опросах
Вы не можете прикреплять файлы к сообщениям
Вы можете скачивать файлы