Loading...
Error

Скачать Первый удар / Ging chaat goo si 4: Ji gaan daan yam mo (Стэнли Тонг) [1995, боевик, комедия, приключения, HDTVRip] [MVO]+[AVO] торрент без регистрации

 
Статистика раздачи
Размер:  1,45 GB   |    Скачан:  55 раз
Сидов:  1  [  0 KB/s  ]  
 
Автор Сообщение

Marsianka

[] 

Информация о фильме
Название: Первый удар
Оригинальное название: Ging chaat goo si 4: Ji gaan daan yam mo
Год выхода: 1995
Жанр: боевик, комедия, приключения
Режиссер: Стэнли Тонг
В ролях: Джеки Чан, Джексон Лью, Энни Ву, Билл Тун, Юрий Петров, Джон Ивис, Терри Ву, Кристофер Казмарек, Эйлен Сит, Мэн Чинг Чан

О фильме:
Агенту ЦРУ Джеки поручают следить за шпионкой Наташей, которая купила тур на Украину. Джеки надеется выследить, с кем будет контактировать девушка, но она скрывается. Джеки бросается в погоню. Он гонится за ней по Австралии и России. Главная его задача – остаться в живых и поймать Тсуи, сообщника Наташи, похитившего ядерную боеголовку. Тсуи оказывается ее любовником, бывшим сотрудником ЦРУ. Его завербовал сотрудник КГБ Егоров, лидер русской мафии.



Страна: США, Австралия, Гонконг
Продолжительность: 01:19:55
Перевод: Профессиональный(многоголосый закадровый R5), Авторский (Одноголосый закадровый), В.Горчаков

Файл
Кодек: XviD
Качество: HDTVRip
Видео: 688x288, 1944 kbps, 25,000 fps
Аудио 1:48 kHz, AC3, 3/2 (L,C,R,l,r) + LFE ch, ~448.00 kbps avg |Многоголосый закадровый, R5|
Аудио 2: 48 kHz, AC3, 2/0 (L,R), ~192.00 kbps avg |Одноголосый закадровый, В.Горчаков|
Полное имя : First Strike.1996.HDTVRip.avi
Формат : AVI
Формат/Информация : Audio Video Interleave
Размер файла : 1,45 Гбайт
Продолжительность : 1 ч. 19 м.
Общий поток : 2599 Кбит/сек
Программа кодирования : VirtualDubMod 1.5.10.2 (build 2542/release)
Библиотека кодирования : VirtualDubMod build 2542/release

Видео
Идентификатор : 0
Формат : MPEG-4 Visual
Профиль формата : Advanced Simple@L5
Параметр BVOP формата : 1
Параметр QPel формата : Нет
Параметр GMC формата : Без точки перехода
Параметр матрицы формата : Выборочная
Идентификатор кодека : XVID
Идентификатор кодека/Подсказка : XviD
Продолжительность : 1 ч. 19 м.
Битрейт : 1944 Кбит/сек
Ширина : 688 пикс.
Высота : 288 пикс.
Соотношение сторон : 2,35:1
Частота кадров : 25,000 кадр/сек
Цветовое пространство : YUV
Подвыборка цветности : 4:2:0
Битовая глубина : 8 бит
Тип развёртки : Прогрессивная
Метод сжатия : С потерями
Бит/(Пиксели*Кадры) : 0.393
Размер потока : 1,09 Гбайт (75%)
Библиотека кодирования : XviD 73

Аудио #1
Идентификатор : 1
Формат : AC-3
Формат/Информация : Audio Coding 3
Расширение режима : CM (complete main)
Идентификатор кодека : 2000
Продолжительность : 1 ч. 19 м.
Вид битрейта : Постоянный
Битрейт : 448 Кбит/сек
Канал(ы) : 6 канала(ов)
Расположение каналов : Front: L C R, Side: L R, LFE
Частота : 48,0 КГц
Битовая глубина : 16 бит
Метод сжатия : С потерями
Размер потока : 256 Мбайт (17%)
Выравнивание : Разделение по промежуткам
Продолжительность промежутка : 40 мс. (1,00 видеокадр)
Время предзагрузки промежутка : 500 ms

Аудио #2
Идентификатор : 2
Формат : AC-3
Формат/Информация : Audio Coding 3
Расширение режима : CM (complete main)
Идентификатор кодека : 2000
Продолжительность : 1 ч. 19 м.
Вид битрейта : Постоянный
Битрейт : 192 Кбит/сек
Канал(ы) : 2 канала(ов)
Расположение каналов : Front: L R
Частота : 48,0 КГц
Битовая глубина : 16 бит
Метод сжатия : С потерями
Размер потока : 110 Мбайт (7%)
Выравнивание : Разделение по промежуткам
Продолжительность промежутка : 40 мс. (1,00 видеокадр)
Время предзагрузки промежутка : 500 ms
Релиз от: Leon-masl



Скачать Первый.удар.Ging.chaat.goo.si.4.Ji.gaan.daan.yam.mo.(Стэнли.Тонг).[1995.боевик.комедия.приключения.HDTVRip].[MVO]+[AVO].torrent без регистрации
Золото ЗОЛОТАЯ РАЗДАЧА! СКАЧАННОЕ НЕ ЗАСЧИТЫВАЕТСЯ! Золото
Дата: Зарегистрирован   [ Тип: внутренний ] Как тут cкачать?
MAGNET ссылка
MAGNET ссылка


Скачать .torrent

15 KB

Статус: проверено DHT
Скачан: торрент - 55 раз, раздача полностью - 11 раз
Размер: 1,45 GB
Оценка:  - (Голосов: 0)
Поблагодарили: 0
Поделиться ссылкой на эту раздачу с друзьями:
В контактеFacebookОдноклассникиTwitterLivejournalМой МирLiveinternet
 

 
Показать сообщения:    


Вы не можете начинать темы
Вы не можете отвечать на сообщения
Вы не можете редактировать свои сообщения
Вы не можете удалять свои сообщения
Вы не можете голосовать в опросах
Вы не можете прикреплять файлы к сообщениям
Вы можете скачивать файлы