Loading...
Error

Скачать Маленькая принцесса (Владимир Грамматиков) [1997, Сказка, семейный, DVDRip] торрент без регистрации

 
Статистика раздачи
Размер:  745 MB   |    Скачан:  76 раз
Сидов:  1  [  0 KB/s  ]   Личеров:  1  [  0 KB/s  ]  
 
Автор Сообщение

Шкипер

[] 


Маленькая принцесса


Год выпуска: 1997
Выпущено: Россия "Киностудия Глобус"
Жанр: Сказка, семейный
Продолжительность: 01:28:26
Перевод: Не требуется
Субтитры: Отсутствует

Режиссер: Владимир Грамматиков

В ролях: Настя Меськова, Ляна Ильницкая, Маша Машкова, Катя Михайловская, Демидова, Алла Сергеевна, Ясулович, Игорь Николаевич,Егор Грамматиков

Описание: Это романтическое повествование о маленькой девочке, которой пришлось пройти нелегкие испытания, происходит в конце XIX века в Лондоне. Капитан Кру привозит свою любимую дочь Сару, которую он называет "маленькой принцессой", в один из лучших и самых дорогих пансионов, чтобы она получила хорошее образование. Девочка тяжело переносит разлуку с отцом. Добрая, отзывчивая Сара быстро находит новых подруг даже среди слуг. Ее ум самостоятельность и уважительное отношение к людям покоряют всех. Однажды приходит трагическая весть - отец Сары капитан Кру умирает в Индии, не оставив дочери ни копейки. Сара нищая… Воспитанной в богатстве и достатке юной героине предстоит пройти через ненависть и унижение, голод и нищету. Но ее доброта, ум и находчивость помогают преодолеть все невзгоды. И конечно же, как в каждой рождественской сказке, все оканчивается хорошо.

Релиз от:







Качество: DVDRip
Формат: AVI
Видео кодек: XviD
Аудио кодек: MP3
Видео: 512x384 (1.33:1), 25 fps, XviD build 73 ~1040 kbps avg, 0.21 bit/pixel
Аудио: 48 kHz, MPEG Layer 3, 2 ch, ~128.00 kbps avg

General
Complete name : D:Изготовление риповMalenkaja.princessa.1997.DVDrip by shkiper.avi
Format : AVI
Format/Info : Audio Video Interleave
File size : 745 MiB
Duration : 1h 28mn
Overall bit rate : 1 178 Kbps
Writing application : VirtualDubMod 1.5.10.3 | www.virtualdub-fr.org || (build 2550/release)
Writing library : VirtualDubMod build 2550/release

Video
ID : 0
Format : MPEG-4 Visual
Format profile : Advanced Simple@L5
Format settings, BVOP : 1
Format settings, QPel : No
Format settings, GMC : No warppoints
Format settings, Matrix : Custom
Codec ID : XVID
Codec ID/Hint : XviD
Duration : 1h 28mn
Bit rate : 1 040 Kbps
Width : 512 pixels
Height : 384 pixels
Display aspect ratio : 4:3
Frame rate : 25.000 fps
Color space : YUV
Chroma subsampling : 4:2:0
Bit depth : 8 bits
Scan type : Progressive
Compression mode : Lossy
Bits/(Pixel*Frame) : 0.212
Stream size : 658 MiB (88%)
Writing library : XviD 73

Audio
ID : 1
Format : MPEG Audio
Format version : Version 1
Format profile : Layer 3
Mode : Joint stereo
Mode extension : MS Stereo
Codec ID : 55
Codec ID/Hint : MP3
Duration : 1h 28mn
Bit rate mode : Constant
Bit rate : 128 Kbps
Channel(s) : 2 channels
Sampling rate : 48.0 KHz
Compression mode : Lossy
Stream size : 81.0 MiB (11%)
Alignment : Aligned on interleaves
Interleave, duration : 40 ms (1.00 video frame)
Interleave, preload duratio : 504 ms
Writing library : LAME3.99r
Encoding settings : -m j -V 4 -q 2 -lowpass 17 -b 128





Скачать Маленькая.принцесса.(Владимир.Грамматиков).[1997.Сказка.семейный.DVDRip].torrent без регистрации
Золото ЗОЛОТАЯ РАЗДАЧА! СКАЧАННОЕ НЕ ЗАСЧИТЫВАЕТСЯ! Золото
Дата: Зарегистрирован   [ Тип: внутренний ] Как тут cкачать?
MAGNET ссылка
MAGNET ссылка


Скачать .torrent

15 KB

Статус: проверено DHT
Скачан: торрент - 76 раз, раздача полностью - 121 раз
Размер: 745 MB
Оценка:  3 (Голосов: 1)
Поблагодарили: 1
Поделиться ссылкой на эту раздачу с друзьями:
В контактеFacebookОдноклассникиTwitterLivejournalМой МирLiveinternet
 

 
Показать сообщения:    


Вы не можете начинать темы
Вы не можете отвечать на сообщения
Вы не можете редактировать свои сообщения
Вы не можете удалять свои сообщения
Вы не можете голосовать в опросах
Вы не можете прикреплять файлы к сообщениям
Вы можете скачивать файлы