Loading...
Error

Скачать Парень с того света / My Boyfriend's Back (Боб Бэлабан) [1993, ужасы, фэнтези, мелодрама, комедия, WEB-DLRip-AVC] [AVO]+[Sub] торрент без регистрации

 
Статистика раздачи
Размер:  2,29 GB   |    Скачан:  49 раз
Сидов:  1  [  0 KB/s  ]  
 
Автор Сообщение

Marsianka

[] 

Информация о фильме

Название: Парень с того света
Оригинальное название: My Boyfriend's Back
Год выпуска: 1993
Жанр: ужасы, фэнтези, мелодрама, комедия
Выпущено: США, Touchstone Pictures
Режиссер: Боб Бэлабан
В ролях: Эндрю Лоури, Трейси Линд, Дэнни Зорн, Эдвард Херрманн, Мэри Бет Хёрт, Джей О. Сэндерс, Либби Виллари, Мэттью Фокс, Филип Сеймур Хоффман, Пол Дули

О фильме: Как порою трудно завоевать сердце девушки! И особенно нелегко, если ты покойник! Школьник Джонни Дингл очень хотел уговорить прелестную Мисси МакКул пойти на выпускной бал с ним, но трагически погиб на подступах к этому великому событию. Однако, как ни странно, сей печальный инцидент не помешал Джонни попытаться завершить начатое: упорный ухажер восстал из мертвых с твердым намерением все-таки потанцевать с Мисси, правда, прежде придется решить ряд насущных для всякого начинающего зомби проблем…



Файл

Качество: WEB-DLRip (AVC)
Видео: MPEG-4 AVC, 3500 Кбит/с, 1024x564, 23.976 кадр/с
Аудио: Русский, английский (AC3, 2 ch, 192 Кбит/с)
Размер: 2.29 ГБ
Продолжительность: 01:24:33
Перевод: Авторский
Субтитры: Английские
Перевод: Авторский (одноголосый закадровый) Андрей Дольский
Звук с раздачи sasha20072007. Синхронизация звука - Dreven.
Сохранены и подписаны оригинальные чаптеры как на исходном WEB-DL.

Общее
Уникальный идентификатор : 223064501863387767374640986969131623103 (0xA7D0A90DCD51139D81FBD1F8E136A2BF)
Полное имя : D:ЗагрузкиMy.Boyfriend's.Back.1993.x264.WEB-DLRip.(AVC).ExKinoRay.mkv
Формат : Matroska
Версия формата : Version 2
Размер файла : 2,29 Гбайт
Продолжительность : 1 ч. 24 м.
Общий поток : 3885 Кбит/сек
Название фильма : Парень с того света.1993.Rip by: ollan
Дата кодирования : UTC 2015-10-24 11:06:33
Программа кодирования : mkvmerge v5.6.0 ('Kenya Kane') built on May 27 2012 16:44:04
Библиотека кодирования : libebml v1.2.3 + libmatroska v1.3.0

Видео
Идентификатор : 1
Формат : AVC
Формат/Информация : Advanced Video Codec
Профиль формата : High@L4.1
Параметр CABAC формата : Да
Параметр ReFrames формата : 9 кадров
Идентификатор кодека : V_MPEG4/ISO/AVC
Продолжительность : 1 ч. 24 м.
Битрейт : 3500 Кбит/сек
Ширина : 1024 пикселя
Высота : 564 пикселя
Соотношение сторон : 16:9
Режим частоты кадров : Постоянный
Частота кадров : 23,976 кадра/сек
Цветовое пространство : YUV
Субдискретизация насыщенности : 4:2:0
Битовая глубина : 8 бит
Тип развёртки : Прогрессивная
Бит/(Пиксели*Кадры) : 0.253
Размер потока : 2,02 Гбайт (88%)
Библиотека кодирования : x264 core 125 r2200 999b753
Настройки программы : cabac=1 / ref=9 / deblock=1:-2:-2 / analyse=0x3:0x133 / me=umh / subme=11 / psy=1 / psy_rd=1.00:0.10 / mixed_ref=1 / me_range=32 / chroma_me=1 / trellis=2 / 8x8dct=1 / cqm=0 / deadzone=21,11 / fast_pskip=0 / chroma_qp_offset=-3 / threads=12 / lookahead_threads=2 / sliced_threads=0 / nr=0 / decimate=0 / interlaced=0 / bluray_compat=0 / constrained_intra=0 / bframes=9 / b_pyramid=2 / b_adapt=2 / b_bias=0 / direct=3 / weightb=1 / open_gop=0 / weightp=2 / keyint=240 / keyint_min=23 / scenecut=40 / intra_refresh=0 / rc=2pass / mbtree=0 / bitrate=3500 / ratetol=1.0 / qcomp=0.60 / qpmin=0 / qpmax=69 / qpstep=4 / cplxblur=20.0 / qblur=0.5 / ip_ratio=1.40 / pb_ratio=1.30 / aq=1:1.00
Язык : English
Default : Да
Forced : Нет

Аудио #1
Идентификатор : 2
Формат : AC-3
Формат/Информация : Audio Coding 3
Расширение режима : CM (complete main)
Параметр Endianness формата : Big
Идентификатор кодека : A_AC3
Продолжительность : 1 ч. 24 м.
Вид битрейта : Постоянный
Битрейт : 192 Кбит/сек
Каналы : 2 канала
Расположение каналов : Front: L R
Частота : 48,0 КГц
Битовая глубина : 16 бит
Метод сжатия : С потерями
Размер потока : 116 Мбайт (5%)
Заголовок : Авторский (А.Дольский)
Язык : Russian
Default : Да
Forced : Нет

Аудио #2
Идентификатор : 3
Формат : AC-3
Формат/Информация : Audio Coding 3
Расширение режима : CM (complete main)
Параметр Endianness формата : Big
Идентификатор кодека : A_AC3
Продолжительность : 1 ч. 24 м.
Вид битрейта : Постоянный
Битрейт : 192 Кбит/сек
Каналы : 2 канала
Расположение каналов : Front: L R
Частота : 48,0 КГц
Битовая глубина : 16 бит
Метод сжатия : С потерями
Размер потока : 116 Мбайт (5%)
Язык : English
Default : Нет
Forced : Нет

Текст
Идентификатор : 4
Формат : UTF-8
Идентификатор кодека : S_TEXT/UTF8
Идентификатор кодека/Информация : UTF-8 Plain Text
Заголовок : SDH
Язык : English
Default : Нет
Forced : Нет

Меню
00:00:00.000 : en:My Boyfriend's Back
00:14:52.000 : en:Welcome Home Son
00:28:24.000 : en:"I'm Dead"
00:34:26.000 : en:Johnny's Falling Apart
00:42:28.000 : en:"I Ate Chuck For You"
00:52:50.000 : en:Don't You Want A Snack?
00:58:39.000 : en:You're Going To The Prom With Buck
01:05:33.000 : en:"Where's Johnny?"
01:08:18.000 : en:"Johnny Run"
01:10:35.000 : en:Don't Kill Johnny
01:13:45.000 : en:"I'm In Heaven"
01:21:28.000 : en:End Credits
Релиз от: Rip by:



Скачать Парень.с.того.света.My.Boyfriend's.Back.(Боб.Бэлабан).[1993.ужасы.фэнтези.мелодрама.комедия.WEB-DLRip-AVC].[AVO]+[Sub].torrent без регистрации
Золото ЗОЛОТАЯ РАЗДАЧА! СКАЧАННОЕ НЕ ЗАСЧИТЫВАЕТСЯ! Золото
Дата: Зарегистрирован   [ Тип: внутренний ] Как тут cкачать?
MAGNET ссылка
MAGNET ссылка


Скачать .torrent

12 KB

Статус: проверено DHT
Скачан: торрент - 49 раз, раздача полностью - 8 раз
Размер: 2,29 GB
Оценка:  - (Голосов: 0)
Поблагодарили: 1
Поделиться ссылкой на эту раздачу с друзьями:
В контактеFacebookОдноклассникиTwitterLivejournalМой МирLiveinternet
 

 
Показать сообщения:    


Вы не можете начинать темы
Вы не можете отвечать на сообщения
Вы не можете редактировать свои сообщения
Вы не можете удалять свои сообщения
Вы не можете голосовать в опросах
Вы не можете прикреплять файлы к сообщениям
Вы можете скачивать файлы