Loading...
Error

Скачать Между небом и землёй / Just Like Heaven (Марк Уотерс) [2005, фэнтези, мелодрама, комедия, WEB-DLRip] [Dub] торрент без регистрации

 
Статистика раздачи
Размер:  1,46 GB   |    Скачан:  58 раз

Полного источника не было: 19 минут

 
Автор Сообщение

Marsianka

[] 

Название: Между небом и землёй
Оригинальное название: Just Like Heaven
Год выхода: 2005
Жанр: фэнтези, мелодрама, комедия
Режиссёр: Марк Уотерс
В ролях: Риз Уизерспун, Марк Руффало, Донал Лог, Дина Спайби, Бен Шенкман, Джон Хидер, Ивана Миличевич, Розалинд Чао, Кэролайн Аарон, Рон Кэнада

О фильме: Вселившись в арендованную квартиру в Сан-Франциско и начав наводить там порядок, Дэвид неожиданно встречает в своем новом жилище привлекательную молодую женщину Элизабет, которая уверяет его, что именно она является хозяйкой этих апартаментов.

Когда же Дэвид начинает склоняться к мысли, что произошло какое-то недоразумение, Элизабет исчезает так же внезапно и загадочно, как и появилась. Замена замков не останавливает красотку: ее таинственные появления и исчезновения продолжают вносить сумятицу в жизнь Дэвида. Убедившись в том, что она привидение, Дэвид старается помочь ей навсегда остаться в потустороннем мире.

Однако, открыв в себе невероятные возможности - например, способность проходить сквозь стены, - Элизабет начинает убеждать себя в том, что она каким-то образом еще жива и поэтому не собирается перебираться на тот свет насовсем. По мере того как оба пытаются выяснить истинную причину происходящего, Дэвид и Элизабет влюбляются друг в друга. Однако перспективы их совместной жизни становятся все более и более призрачными...



Выпущено: США, DreamWorks SKG, MacDonald/Parkes Productions
Продолжительность: 01:34:52
Перевод: Дублированный (Невафильм)
Оригинальная аудио-дорожка: Нет

Качество: WEB-DLRip [Исходник: WEB-DL | iTunes Russia]
Видео: XviD, 1818 Кбит/с, 720x400 (16:9), 23.976 кадр/с
Aудио: Русский, Dolby АС3, 48000 Гц, 384 Кбит/с, 6 каналов (5.1) - DUB [Невафильм]
Субтитры: Нет

General
Complete name : Just.Like.Heaven.2005.WEB-DLRip.avi
Format : AVI
Format/Info : Audio Video Interleave
File size : 1.46 GiB
Duration : 1h 34mn
Overall bit rate : 2 207 Kbps
Movie name : Между небом и землёй / Just Like Heaven (2005) WEB-DLRip
Writing application : VirtualDubMod 1.5.10.3 | www.virtualdub-fr.org || (build 2550/release)
Writing library : VirtualDubMod build 2550/release
Copyright : rip by ivandubskoj

Video
ID : 0
Format : MPEG-4 Visual
Format profile : Advanced Simple@L5
Format settings, BVOP : 1
Format settings, QPel : No
Format settings, GMC : No warppoints
Format settings, Matrix : Custom
Codec ID : XVID
Codec ID/Hint : XviD
Duration : 1h 34mn
Bit rate : 1 818 Kbps
Width : 720 pixels
Height : 400 pixels
Display aspect ratio : 16:9
Frame rate : 23.976 fps
Color space : YUV
Chroma subsampling : 4:2:0
Bit depth : 8 bits
Scan type : Progressive
Compression mode : Lossy
Bits/(Pixel*Frame) : 0.263
Stream size : 1.20 GiB (82%)
Writing library : XviD 73

Audio
ID : 1
Format : AC-3
Format/Info : Audio Coding 3
Mode extension : CM (complete main)
Codec ID : 2000
Duration : 1h 34mn
Bit rate mode : Constant
Bit rate : 384 Kbps
Channel(s) : 6 channels
Channel positions : Front: L C R, Side: L R, LFE
Sampling rate : 48.0 KHz
Bit depth : 16 bits
Compression mode : Lossy
Stream size : 260 MiB (17%)
Alignment : Split accross interleaves
Interleave, duration : 64 ms (1.54 video frames)
Interleave, preload duration : 500 ms
Title : Russian, DUB [Невафильм]
Автор рипа - ivandubskoj



Скачать Между.небом.и.землёй.Just.Like.Heaven.(Марк.Уотерс).[2005.фэнтези.мелодрама.комедия.WEB-DLRip].[Dub].torrent без регистрации
Золото ЗОЛОТАЯ РАЗДАЧА! СКАЧАННОЕ НЕ ЗАСЧИТЫВАЕТСЯ! Золото
Дата: Зарегистрирован   [ Тип: внутренний ] Как тут cкачать?
MAGNET ссылка
MAGNET ссылка


Скачать .torrent

15 KB

Статус: проверено DHT
Скачан: торрент - 58 раз, раздача полностью - 23 раз
Размер: 1,46 GB
Оценка:  5 (Голосов: 1)
Поблагодарили: 3
Поделиться ссылкой на эту раздачу с друзьями:
В контактеFacebookОдноклассникиTwitterLivejournalМой МирLiveinternet
 

 
Показать сообщения:    


Вы не можете начинать темы
Вы не можете отвечать на сообщения
Вы не можете редактировать свои сообщения
Вы не можете удалять свои сообщения
Вы не можете голосовать в опросах
Вы не можете прикреплять файлы к сообщениям
Вы можете скачивать файлы