Loading...
Error

Скачать Отец Браун / Father Brown (сезоны 01-03) (Йен Барбер и др.) [2013-2015, драма, детектив, HDTVRip] [720p] [MVO (ТВЦ)]+[Eng]+[Sub Rus, Eng] торрент без регистрации

 
Статистика раздачи
Размер:  32,37 GB   |    Скачан:  75 раз

Полного источника не было: 25 минут

 
Автор Сообщение

МихаНЕзатор

[] 



Информация о фильме
Название: Отец Браун / Патер Браун
Оригинальное название: Father Brown
Год выхода: 2013-2015
Жанр: Детектив, драма
Режиссер: Айэн Барбер, Доминик Киви, Мэтт Картер

В ролях: Марк Вильямс, Хьюго Спир, Kasia Koleczek, Майк Истман, Алекс Прайс, Кейт Осборн, Нэнси Кэролл

О фильме: И если изобретателем детектива принято считать Эдгара Аллана По, то безусловным и ярким продолжателем детективного мастерства можно считать Гилберта Кейта Честертона. Именно по его классическим рассказам поставлен этот британский сериал. Герой Честертона - отец Браун,точно так же, как и Шерлок Холмс использовал свою внимательность в отношении людей, наблюдательность в мелочах и умение делать правильные выводы в расследовании загадочных преступлений. Чего тут много говорить? Классика.



Релиз от: CergMark

Страна: Великобритания
Студия: ВВС
Продолжительность: 35 х ~ 00:45:00
Перевод: Профессиональный (многоголосый закадровый) ТВЦ

Файл
Кодек: x264
Качество: HDTVRip 720p
Видео: ~ 2400 Кбит/с, 1280x720
Звук:
Аудио 1: Русский, AC3, 48 kHz, 2 ch, 192 kbps
Аудио 2: Английский, AC3, 48 kHz, 6 ch, 384-448 kbps
Субтитры: русские, английские

АНОНСЫ ПОПУЛЯРНЫХ РАЗДАЧ

1 Сезон:
01. Молот Господень (The Hammer of God)
02. Летучие звезды (The Flying Stars)
03. Неправильная форма (The Wrong Shape)
04. Человек в дереве (The Man in the Tree)
05. Глаз Аполлона (The Eye of Apollo)
06. Невеста Христова (The Bride of Christ)
07. Дьявольская пыль (The Devil's Dust)
08. Лицо смерти (The Face of Death)
09. Мэр и фокусник (The Mayor and the Magician)
10. Голубой крест (The Blue Cross)

2 Сезон:
01. Адская машина (The Ghost in the Machine)
02. Безумнее всех (The Maddest of All)
03. Гордость Прайдов (The Pride of the Prydes)
04. Тень эшафота (The Shadow of the Scaffold)
05. Тайны чёток (The Mysteries of the Rosary)
06. Дочери Иерусалима (The Daughters of Jerusalem)
07. Три орудия убийства (The Three Tools of Death)
08. Приз полковника Джерарда (The Prize of Colonel Gerard)
09. Старуха с косой (The Grim Reaper)
10. Закон движения (The Laws of Motion)

3 Сезон:
01. Человек в тени (The Man in the Shadows)
02. Проклятие Аменхотепа (The Curse of Amenhotep)
03. Человек-невидимка (The Invisible Man)
04. След сломанной сабли (The Sign of the Broken Sword)
05. Последний игрок (The Last Man)
06. Братство Апкотта (Upcott Fraternity)
07. Кэмблфордский боггарт (The Kembleford Boggart)
08. Приют разврата (The Lair of the Libertines)
09. Истина в вине (The Truth in the Wine)
10. Страшный суд (The Judgement of Man)
11. Машина времени (The Time Machine)
12. Стоящие камни (The Standing Stones)
13. Разбойничий рай (The Paradise of Thieves)
14. Печать молчания (The Deadly Seal)
15. Сова Минервы (The Owl of Minerva)
Студия "Back Board Cinema" по заказу ТВЦ

1 Сезон - Английский (AC3, 6 ch, 448 Кбит/с)
2 Сезон - Замена дорожки на Английский (AC3, 6 ch, 384 Кбит/с) - CergMark
3 Сеон - Работа со звуком - CergMark
3 Сезон 15 серия - К сожалению ТВЦ не до конца показали (В самом конце пару фраз последних моя личная озвучка!) - CergMark
3 Сезон - Субтитров английских нет.

Общее
Уникальный идентификатор : 185821404913447642838261795296751764484 (0x8BCBE69B0809CEC79FF57B303859C404)
Полное имя : D:DownloadsВременные файлыОтец Браун (Father Brown) HDTVRip 720p ТВЦ3 СезонОтец Браун (Father Brown) s03e06.720p. Братство Апкотта (Upcott Fraternity).mkv
Формат : Matroska
Версия формата : Version 4 / Version 2
Размер файла : 907 Мбайт
Продолжительность : 44 м.
Общий поток : 2875 Кбит/сек
Дата кодирования : UTC 2015-10-26 07:53:05
Программа кодирования : mkvmerge v7.3.0 ('Nouages') 64bit built on Oct 22 2014 18:53:34
Библиотека кодирования : libebml v1.3.0 + libmatroska v1.4.1
_STATISTICS_WRITING_APP : mkvmerge v7.3.0 ('Nouages') 64bit built on Oct 22 2014 18:53:34
_STATISTICS_WRITING_DATE_UTC : 2015-10-26 07:53:05
_STATISTICS_TAGS : BPS DURATION NUMBER_OF_FRAMES NUMBER_OF_BYTES
DURATION : 00:44:05.312000000
NUMBER_OF_FRAMES : 82666
NUMBER_OF_BYTES : 126974976

Видео
Идентификатор : 1
Формат : AVC
Формат/Информация : Advanced Video Codec
Профиль формата : High@L4.1
Параметр CABAC формата : Да
Параметр ReFrames формата : 5 кадров
Идентификатор кодека : V_MPEG4/ISO/AVC
Продолжительность : 44 м.
Битрейт : 2242 Кбит/сек
Ширина : 1280 пикселей
Высота : 720 пикселей
Соотношение сторон : 16:9
Режим частоты кадров : Постоянный
Частота кадров : 25,000 кадров/сек
Цветовое пространство : YUV
Субдискретизация насыщенности : 4:2:0
Битовая глубина : 8 бит
Тип развёртки : Прогрессивная
Бит/(Пиксели*Кадры) : 0.097
Размер потока : 707 Мбайт (78%)
Библиотека кодирования : x264 core 144 r2525 40bb568
Настройки программы : cabac=1 / ref=5 / deblock=1:0:0 / analyse=0x3:0x113 / me=umh / subme=8 / psy=1 / psy_rd=1.00:0.00 / mixed_ref=1 / me_range=16 / chroma_me=1 / trellis=1 / 8x8dct=1 / cqm=0 / deadzone=21,11 / fast_pskip=1 / chroma_qp_offset=-2 / threads=12 / lookahead_threads=2 / sliced_threads=0 / nr=0 / decimate=1 / interlaced=0 / bluray_compat=0 / constrained_intra=0 / bframes=3 / b_pyramid=2 / b_adapt=2 / b_bias=0 / direct=3 / weightb=1 / open_gop=0 / weightp=2 / keyint=250 / keyint_min=25 / scenecut=40 / intra_refresh=0 / rc_lookahead=50 / rc=crf / mbtree=1 / crf=18.0 / qcomp=0.60 / qpmin=0 / qpmax=69 / qpstep=4 / ip_ratio=1.40 / aq=1:1.00
Язык : English
Default : Да
Forced : Нет
Цветовой диапазон : Limited
Коэффициенты матрицы : BT.709
_STATISTICS_WRITING_APP : mkvmerge v7.3.0 ('Nouages') 64bit built on Oct 22 2014 18:53:34
_STATISTICS_WRITING_DATE_UTC : 2015-10-26 07:53:05
_STATISTICS_TAGS : BPS DURATION NUMBER_OF_FRAMES NUMBER_OF_BYTES
DURATION : 00:44:05.320000000
NUMBER_OF_FRAMES : 66133
NUMBER_OF_BYTES : 759417908

Аудио #1
Идентификатор : 2
Формат : AC-3
Формат/Информация : Audio Coding 3
Расширение режима : CM (complete main)
Параметр Endianness формата : Big
Идентификатор кодека : A_AC3
Продолжительность : 44 м.
Вид битрейта : Постоянный
Битрейт : 192 Кбит/сек
Каналы : 2 канала
Расположение каналов : Front: L R
Частота : 48,0 КГц
Метод сжатия : С потерями
Размер потока : 60,5 Мбайт (7%)
Заголовок : TVC - P.M. (Профессиональный многоголосый ТВЦ)
Язык : Russian
Default : Да
Forced : Нет

Аудио #2
Идентификатор : 3
Формат : AC-3
Формат/Информация : Audio Coding 3
Расширение режима : CM (complete main)
Параметр Endianness формата : Big
Идентификатор кодека : A_AC3
Продолжительность : 44 м.
Вид битрейта : Постоянный
Битрейт : 384 Кбит/сек
Каналы : 6 каналов
Расположение каналов : Front: L C R, Side: L R, LFE
Частота : 48,0 КГц
Метод сжатия : С потерями
Размер потока : 121 Мбайт (13%)
Язык : English
Default : Нет
Forced : Нет

Текст
Идентификатор : 4
Формат : UTF-8
Идентификатор кодека : S_TEXT/UTF8
Идентификатор кодека/Информация : UTF-8 Plain Text
Заголовок : Rus_Full
Default : Да
Forced : Нет



Скачать Отец.Браун.Father.Brown.(сезоны.01-03).(Йен.Барбер.и.др.).[2013-2015.драма.детектив.HDTVRip].[720p].[MVO.(ТВЦ)]+[Eng]+[Sub.Rus.Eng].torrent без регистрации
Золото ЗОЛОТАЯ РАЗДАЧА! СКАЧАННОЕ НЕ ЗАСЧИТЫВАЕТСЯ! Золото
Дата: Зарегистрирован   [ Тип: внутренний ] Как тут cкачать?
MAGNET ссылка
MAGNET ссылка


Скачать .torrent

168 KB

Статус: проверено DHT
Скачан: торрент - 75 раз, раздача полностью - 24 раз
Размер: 32,37 GB
Оценка:  - (Голосов: 0)
Поблагодарили: 0
Поделиться ссылкой на эту раздачу с друзьями:
В контактеFacebookОдноклассникиTwitterLivejournalМой МирLiveinternet
 

 
Показать сообщения:    


Вы не можете начинать темы
Вы не можете отвечать на сообщения
Вы не можете редактировать свои сообщения
Вы не можете удалять свои сообщения
Вы не можете голосовать в опросах
Вы не можете прикреплять файлы к сообщениям
Вы можете скачивать файлы