Loading...
Error

Скачать Смоки и Бандит 2 / Smokey and the Bandit 2 (Хэл Нидэм) [1980, комедия, приключения, WEB-DLRip-AVC] [MVO]+[Sub] торрент без регистрации

 
Статистика раздачи
Размер:  2,24 GB   |    Скачан:  75 раз
Сидов:  1  [  0 KB/s  ]  
 
Автор Сообщение

Marsianka

[] 

Смоки и Бандит 2 / Smokey and the Bandit 2 (1980) WEB-DLRip-AVC
Производство: США / Universal Pictures, Rastar Pictures
Жанр: комедия, приключения

Режиссер: Хэл Нидэм
Актеры: Берт Рейнолдс, Джеки Глисон, Джерри Рид, Дом ДеЛуис, Сэлли Филд, Пол Уильямс

Описание:
Продолжение комедии «Смоки и Бандит». Известные по первой части Бандит и Снеговик на этот раз за 400 тысяч долларов везут из Флориды в Техас беременную слониху. А помешать им хочет тот же злопамятный шериф. Он позвал на помощь всех своих родственников полицейских. Но это ему не помогло, так как Снеговик вызвал на подмогу водителей - дальнобойщиков...



Релиз от: FAGOT100 (NNM-CLUB)
Продолжительность: 01:40:34
Качество видео: WEB-DLRip_AVC

Видео: AVC, 1024x556 (16:9), 23.976 fps, 2 799 Kbps (0.205 bit/pixel)
Перевод: Профессиональный (многоголосый, закадровый)
Язык субтитров: Английский
Вид субтитров: Вшитые, отключаемые
[/spoiler]
Аудио #1: AC-3, 48.0 KHz, 2 ch, 192 Kbps, CBR (Russian)
Аудио #2: AC-3, 48.0 KHz, 2 ch, 192 Kbps, CBR (English)

Формат : Matroska
Версия формата : Version 2
Размер файла : 2,24 Гбайт
Продолжительность : 1 ч. 40 м.
Общий поток : 3185 Кбит/сек
Название фильма : Smokey.and.the.Bandit.2.1980
Дата кодирования : UTC 2015-10-26 19:20:21
Программа кодирования : mkvmerge v5.3.0 ('I could have danced') built on Feb 9 2012 10:38:07
Библиотека кодирования : libebml v1.2.3 + libmatroska v1.3.0
Attachment : Yes

Видео
Идентификатор : 1
Формат : AVC
Формат/Информация : Advanced Video Codec
Профиль формата : High@L4.1
Параметр CABAC формата : Да
Параметр ReFrames формата : 8 кадров
Идентификатор кодека : V_MPEG4/ISO/AVC
Продолжительность : 1 ч. 40 м.
Битрейт : 2799 Кбит/сек
Ширина : 1024 пикселя
Высота : 556 пикселей
Соотношение сторон : 1,85:1
Режим частоты кадров : Постоянный
Частота кадров : 23,976 кадра/сек
Цветовое пространство : YUV
Субдискретизация насыщенности : 4:2:0
Битовая глубина : 8 бит
Тип развёртки : Прогрессивная
Бит/(Пиксели*Кадры) : 0.205
Размер потока : 1,92 Гбайт (86%)
Библиотека кодирования : x264 core 146 r2538 121396c
Настройки программы : cabac=1 / ref=8 / deblock=1:-3:-3 / analyse=0x3:0x133 / me=umh / subme=10 / psy=1 / psy_rd=0.98:0.15 / mixed_ref=1 / me_range=32 / chroma_me=1 / trellis=2 / 8x8dct=1 / cqm=0 / deadzone=21,11 / fast_pskip=0 / chroma_qp_offset=-3 / threads=12 / lookahead_threads=1 / sliced_threads=0 / nr=0 / decimate=0 / interlaced=0 / bluray_compat=0 / constrained_intra=0 / bframes=6 / b_pyramid=2 / b_adapt=2 / b_bias=0 / direct=3 / weightb=1 / open_gop=0 / weightp=2 / keyint=240 / keyint_min=23 / scenecut=40 / intra_refresh=0 / rc=2pass / mbtree=0 / bitrate=2799 / ratetol=1.0 / qcomp=0.60 / qpmin=0 / qpmax=69 / qpstep=4 / cplxblur=20.0 / qblur=0.5 / ip_ratio=1.40 / pb_ratio=1.30 / aq=1:0.90
Язык : English
Default : Да
Forced : Нет

Аудио #1
Идентификатор : 2
Формат : AC-3
Формат/Информация : Audio Coding 3
Расширение режима : CM (complete main)
Параметр Endianness формата : Big
Идентификатор кодека : A_AC3
Продолжительность : 1 ч. 40 м.
Вид битрейта : Постоянный
Битрейт : 192 Кбит/сек
Каналы : 2 канала
Расположение каналов : Front: L R
Частота : 48,0 КГц
Битовая глубина : 16 бит
Метод сжатия : С потерями
Задержка видео : 600 мс.
Размер потока : 138 Мбайт (6%)
Язык : Russian
Default : Да
Forced : Нет

Аудио #2
Идентификатор : 3
Формат : AC-3
Формат/Информация : Audio Coding 3
Расширение режима : CM (complete main)
Параметр Endianness формата : Big
Идентификатор кодека : A_AC3
Продолжительность : 1 ч. 40 м.
Вид битрейта : Постоянный
Битрейт : 192 Кбит/сек
Каналы : 2 канала
Расположение каналов : Front: L R
Частота : 48,0 КГц
Битовая глубина : 16 бит
Метод сжатия : С потерями
Размер потока : 138 Мбайт (6%)
Язык : English
Default : Нет
Forced : Нет

Текст
Идентификатор : 4
Формат : UTF-8
Идентификатор кодека : S_TEXT/UTF8
Идентификатор кодека/Информация : UTF-8 Plain Text
Язык : English
Default : Да
Forced : Нет

Меню
00:00:00.000 : en:Feuding For Governor
00:03:42.000 : en:Main Titles
00:06:25.000 : en:A Bandit Comeback
00:13:10.000 : en:The Runaway Bride
00:20:16.000 : en:Frog and Bandit
00:26:00.000 : en:On The Road Again
00:29:28.000 : en:Picking Up the Cargo
00:35:24.000 : en:Sheriff Justice
00:38:22.000 : en:Dolphins and Steelers
00:42:30.000 : en:A Sick Elephant
00:55:33.000 : en:Bandit's Record
01:01:14.000 : en:Follow the Leader
01:07:00.000 : en:Having A Baby
01:16:28.000 : en:Gaylord and Reggie
01:22:30.000 : en:Cars Vs. Trucks
01:30:15.000 : en:Lion Country Safari
01:33:45.000 : en:Making Up
01:36:43.000 : en:End Titles



Скачать Смоки.и.Бандит.2.Smokey.and.the.Bandit.2.(Хэл.Нидэм).[1980.комедия.приключения.WEB-DLRip-AVC].[MVO]+[Sub].torrent без регистрации
Золото ЗОЛОТАЯ РАЗДАЧА! СКАЧАННОЕ НЕ ЗАСЧИТЫВАЕТСЯ! Золото
Дата: Зарегистрирован   [ Тип: внутренний ] Как тут cкачать?
MAGNET ссылка
MAGNET ссылка


Скачать .torrent

12 KB

Статус: проверено DHT
Скачан: торрент - 75 раз, раздача полностью - 26 раз
Размер: 2,24 GB
Оценка:  - (Голосов: 0)
Поблагодарили: 2
Поделиться ссылкой на эту раздачу с друзьями:
В контактеFacebookОдноклассникиTwitterLivejournalМой МирLiveinternet
 

 
Показать сообщения:    


Вы не можете начинать темы
Вы не можете отвечать на сообщения
Вы не можете редактировать свои сообщения
Вы не можете удалять свои сообщения
Вы не можете голосовать в опросах
Вы не можете прикреплять файлы к сообщениям
Вы можете скачивать файлы