Loading...
Error

Скачать Мстители: Эра Альтрона / Avengers: Age of Ultron (Джосс Уидон) [2015, фантастика, фэнтези, боевик, BDRip][1080p] [Dub Rus Ukr Лицензия] [R.G. GoldenShara] торрент без регистрации

Страницы:  1, 2  След.

Статистика раздачи
Размер:  4,81 GB   |    Скачан:  78 раз
Сидов:  1  [  0 KB/s  ]   Личеров:  1  [  0 KB/s  ]  
 
 
 
Автор Сообщение

Magnetto83

[] 


Мстители: Эра Альтрона / Avengers: Age of Ultron


Год выпуска: 2015
Выпущено: США | Marvel Studios Inc
Жанр: фантастика, фэнтези, боевик
Продолжительность: 02:21:18
Перевод 1 и 2: Профессиональный (полное дублирование) | Blu-Ray CEE |
Субтитры: Русские (форс. + полные), украинские (форс. + повні), английские (full+SHD+SHD Colored)
Навигация по главам: Сохранены оригинальные главы как на Blu-ray

Слоган: «A new age begins»

Режиссер: Джосс Уидон

В ролях: Роберт Дауни мл., Крис Хемсворт, Крис Эванс, Скарлетт Йоханссон, Марк Руффало, Джереми Реннер, Аарон Тейлор-Джонсон, Элизабет Олсен, Джеймс Спэйдер, Сэмюэл Л. Джексон, Коби Смолдерс, Пол Беттани, Линда Карделлини, Хейли Этвелл, Том Хиддлстон, Идрис Эльба, Энди Серкис, Стэн Ли, Стеллан Скарсгард, Лу Ферриньо

Описание: Человечество на грани уничтожения. На этот раз людям угрожает Альтрон - искусственный интеллект, ранее созданный для того, чтобы защищать Землю от любых угроз. Однако, главной угрозой он посчитал человечество. Международная организация Щ.И.Т. распалась, и теперь мир не способен справиться с таким мощным врагом, потому люди вновь обращаются за помощью к Величайшим Героям Земли — Мстителям. Однако Альтрон слишком силен, и есть большая вероятность, что даже им не удастся остановить начало надвигающейся Эры Альтрона, где нет места для людей…



Возраст: 16+ (зрителям, достигшим 16 лет)
Рейтинг MPAA: PG-13 (детям до 13 лет просмотр нежелателен)

Качество: BDRip 1080p
Формат: MKV
Видео кодек: H.264
Аудио кодек: AC3
Видео: 1920x804 (2.40:1), 3976 Кбит/с, 23.976 fps
Аудио 1: Русский Dolby Digital 5.1 (448 Кбит/с) - Вшит в контейнер
Аудио 2: Украинский Dolby Digital 5.1 (448 Кбит/с) - Отдельным Файлом


x264 [info]: frame I:1825 Avg QP:16.61 size:121715
x264 [info]: frame P:64826 Avg QP:21.18 size: 35421
x264 [info]: frame B:136636 Avg QP:21.96 size: 12407
x264 [info]: consecutive B-frames: 11.5% 6.1% 16.9% 14.8% 16.9% 29.3% 3.2% 0.4% 1.0%
x264 [total]: encoded 203287 frames, 2.09 fps, 3975.68 kb/s



General
Complete name : G:\Видео\Marvel 1080p\Мстители 2. Эра Альтрона 2015 Dub Rus Ukr BDRip 1080p\Мстители 2. Эра Альтрона 2015 Dub BDRip 1080p.mkv
Format : Matroska
Format version : Version 4 / Version 2
File size : 4.37 GiB
Duration : 2h 21mn
Overall bit rate : 4 426 Kbps
Movie name : Мстители 2. Эра Альтрона 2015 Dub Rus BDRip 1080p By R.G. GoldenShara
Encoded date : UTC 2018-04-09 15:26:28
Writing application : mkvmerge v7.8.0 ('River Man') 32bit built on Mar 27 2015 16:18:02
Writing library : libebml v1.3.1 + libmatroska v1.4.2
Attachements : Cover
DURATION : 02:21:18.816000000
NUMBER_OF_FRAMES : 264963
NUMBER_OF_BYTES : 474813696
_STATISTICS_WRITING_APP : mkvmerge v7.8.0 ('River Man') 32bit built on Mar 27 2015 16:18:02
_STATISTICS_WRITING_DATE_UTC : 2018-04-09 15:26:28
_STATISTICS_TAGS : BPS DURATION NUMBER_OF_FRAMES NUMBER_OF_BYTES

Video
ID : 1
Format : AVC
Format/Info : Advanced Video Codec
Format profile : High@L4.1
Format settings, CABAC : Yes
Format settings, ReFrames : 5 frames
Codec ID : V_MPEG4/ISO/AVC
Duration : 2h 21mn
Bit rate : 3 976 Kbps
Width : 1 920 pixels
Height : 804 pixels
Display aspect ratio : 2.40:1
Frame rate mode : Constant
Frame rate : 23.976 fps
Color space : YUV
Chroma subsampling : 4:2:0
Bit depth : 8 bits
Scan type : Progressive
Bits/(Pixel*Frame) : 0.107
Stream size : 3.84 GiB (88%)
Title : Мстители 2. Эра Альтрона 2015 BDRip 1080p By Magnetto 83
Writing library : x264 core 146 r2538 121396c
Encoding settings : cabac=1 / ref=5 / deblock=1:-1:-1 / analyse=0x3:0x113 / me=umh / subme=10 / psy=1 / psy_rd=1.00:0.00 / mixed_ref=1 / me_range=32 / chroma_me=1 / trellis=2 / 8x8dct=1 / cqm=0 / deadzone=21,11 / fast_pskip=0 / chroma_qp_offset=-2 / threads=3 / lookahead_threads=1 / sliced_threads=0 / nr=0 / decimate=1 / interlaced=0 / bluray_compat=0 / constrained_intra=0 / bframes=8 / b_pyramid=2 / b_adapt=2 / b_bias=0 / direct=3 / weightb=1 / open_gop=0 / weightp=2 / keyint=250 / keyint_min=23 / scenecut=40 / intra_refresh=0 / rc=2pass / mbtree=0 / bitrate=3976 / ratetol=1.0 / qcomp=0.60 / qpmin=0 / qpmax=69 / qpstep=4 / cplxblur=20.0 / qblur=0.5 / ip_ratio=1.40 / pb_ratio=1.30 / aq=2:1.00
Language : English
Default : Yes
Forced : No

Audio
ID : 2
Format : AC-3
Format/Info : Audio Coding 3
Mode extension : CM (complete main)
Format settings, Endianness : Big
Codec ID : A_AC3
Duration : 2h 21mn
Bit rate mode : Constant
Bit rate : 448 Kbps
Channel(s) : 6 channels
Channel positions : Front: L C R, Side: L R, LFE
Sampling rate : 48.0 KHz
Compression mode : Lossy
Stream size : 453 MiB (10%)
Title : DD 5.1 @ 448 kbps - Дубляж | Blu-Ray CEE |
Language : Russian
Default : Yes
Forced : No

Text #1
ID : 3
Format : UTF-8
Codec ID : S_TEXT/UTF8
Codec ID/Info : UTF-8 Plain Text
Title : Форс.
Language : Russian
Default : Yes
Forced : No

Text #2
ID : 4
Format : UTF-8
Codec ID : S_TEXT/UTF8
Codec ID/Info : UTF-8 Plain Text
Title : Полные | Blu-Ray |
Language : Russian
Default : No
Forced : No

Text #3
ID : 5
Format : UTF-8
Codec ID : S_TEXT/UTF8
Codec ID/Info : UTF-8 Plain Text
Title : Форс.
Language : Ukrainian
Default : No
Forced : No

Text #4
ID : 6
Format : UTF-8
Codec ID : S_TEXT/UTF8
Codec ID/Info : UTF-8 Plain Text
Title : Повні
Language : Ukrainian
Default : No
Forced : No

Text #5
ID : 7
Format : UTF-8
Codec ID : S_TEXT/UTF8
Codec ID/Info : UTF-8 Plain Text
Title : Full
Language : English
Default : No
Forced : No

Text #6
ID : 8
Format : UTF-8
Codec ID : S_TEXT/UTF8
Codec ID/Info : UTF-8 Plain Text
Title : SDH
Language : English
Default : No
Forced : No

Text #7
ID : 9
Format : UTF-8
Codec ID : S_TEXT/UTF8
Codec ID/Info : UTF-8 Plain Text
Title : SDH-Colored
Language : English
Default : No
Forced : No

Menu
00:00:00.000 : :(01)00:00:00:000
00:12:15.192 : :(02)00:12:15:192
00:21:23.949 : :(03)00:21:23:949
00:33:01.770 : :(04)00:33:01:770
00:36:07.623 : :(05)00:36:07:623
00:42:00.768 : :(06)00:42:00:768
00:52:44.744 : :(07)00:52:44:744
00:59:01.871 : :(08)00:59:01:871
01:15:51.087 : :(09)01:15:51:087
01:27:08.597 : :(10)01:27:08:597
01:36:44.756 : :(11)01:36:44:756
01:54:35.326 : :(12)01:54:35:326
02:06:27.578 : :(13)02:06:27:578
02:11:08.025 : :(14)02:11:08:025






Скачать Мстители.Эра.Альтрона.Avengers.Age.of.Ultron.(Джосс.Уидон).[2015.фантастика.фэнтези.боевик.BDRip][1080p].[Dub.Rus.Ukr.Лицензия].[R.G.GoldenShara].torrent без регистрации
Золото ЗОЛОТАЯ РАЗДАЧА! СКАЧАННОЕ НЕ ЗАСЧИТЫВАЕТСЯ! Золото
Дата: Зарегистрирован   [ Тип: внутренний ] Как тут cкачать?
MAGNET ссылка
MAGNET ссылка


Скачать .torrent

13 KB

Статус: проверено
Скачан: торрент - 78 раз, раздача полностью - 28 раз
Размер: 4,81 GB
Оценка:  5 (Голосов: 4)
Поблагодарили: 7
Поделиться ссылкой на эту раздачу с друзьями:
В контактеFacebookОдноклассникиTwitterLivejournalМой МирLiveinternet
 

 

Magnetto83

[] 

az ВСЕМ ПРИЯТНОГО ПРОСМОТРА!!!! az
 

DimoNsteR

[] 

звук лицензионный, или iTunes?
 

DimoNsteR

[] 

субтитры на не переведенные места можешь взять здесь
http://krutor.org/torrent/474830/mstiteli-era-altro...alfou-litsenziya
Они там отдельным файлом.
Я считаю что они нужны.
 

Magnetto83

[] 

DimoNsteR писал(а):

звук лицензионный, или iTunes?
Звук ЛИЦЕНЗИЯ!!! Исходник - лицензионный блюрик, не ремукс, не iTunes!

Товарищи, перекачайте плиз торрент, добавлены русские субтитры!
 

viktor33

[] 

Magnetto83
Спасибо земеля. Вопрос, а сможешь сделать на 2.18 в 1280р?
 

Bossyra

[] 

Встаньте на раздачу ПЛИЗЗЗЗЗ ab
 

DimoNsteR

[] 

я встану
 

Magnetto83

[] 

Спасибо DimoNster! ay И я поддержу! ad
 

sinner_2016

[] 

Ребят встаньте на раздачу будьте добры.
 

DimoNsteR

[] 

sinner_2016 писал(а):

Ребят встаньте на раздачу будьте добры.
ОК
 

Irishland

[] 

встаньте кто нибудь на раздачу, для коллекции очень надо,буду очень благодарна)
 

StarCinema

[] 

Irishland писал(а):

встаньте кто нибудь на раздачу, для коллекции очень надо,буду очень благодарна)
ок. в следующий раз пишите в личку автору или в этот форум /viewtopic.php?t=16102265
 

7Жнец7

[] 

Просьба сделать BDRip 720.
Стоящее кино.
Заранее Спасибо!
 

Magnetto83

[] 

ab По причине глюкавого исходника рип будет наново переделан! ab
 
Показать сообщения:    


Вы не можете начинать темы
Вы не можете отвечать на сообщения
Вы не можете редактировать свои сообщения
Вы не можете удалять свои сообщения
Вы не можете голосовать в опросах
Вы не можете прикреплять файлы к сообщениям
Вы можете скачивать файлы