Loading...
Error

Скачать Безмолвная схватка / Silent Fall (Брюс Бересфорд / Bruce Beresford) [1994, триллер, драма, детектив, DVDRip-AVC] [Dub] (Варус Видео) + [DVO] (Инис) + [Sub] Eng + [Orig] Eng торрент без регистрации

 
Статистика раздачи
Размер:  1,71 GB   |    Скачан:  49 раз
Сидов:  1  [  0 KB/s  ]  
 
Автор Сообщение

leon030982

[] 

Безмолвная схватка / Silent Fall


Год выпуска: 1994
Страна: США
Жанр: триллер, драма, детектив
Продолжительность: 01:36:45
Перевод #1: Профессиональный (дублированный) [Варус Видео]
Перевод #2: Профессиональный (двухголосый закадровый) [Инис]
Cубтитры: английские
Оригинальная аудиодорожка: английский отдельным файлом

Режиссер: Брюс Бересфорд / Bruce Beresford

В ролях: Ричард Дрейфусс, Лив Тайлер, Бен Фолкнер, Дж.Т. Уолш, Джон Литгоу, Линда Хэмилтон, Занн МаКларнон, Брэндон Стаффер, Трева Мониик Кинг, Джон МакГи мл.

Описание: В этом деле нет никакой зацепки, ни мотивов, ни подозреваемых. А то, что знает единственный свидетель — очевидец, возможно, никто никогда не узнает.
Этот свидетель — 9-летний ребенок — аутист, ушедший в свой собственный внутренний мир, и сцены зверского убийства его родителей запрятаны где-то в глубине его памяти, где они и останутся, если детский психолог не сможет осторожно и решительно извлечь их оттуда…

Сэмпл

Качество: DVDRip-AVC
Формат: MKV
Видео: 718x576 (16:9) @ 1022x576, 25.000 fps, AVC, ~1920 Kbps, 0.186 bits/pixel
Аудио 1: Russian, 48.0 KHz, AC3, 2 ch, 224 Kbps - Варус Видео
Аудио 2: Russian, 48.0 KHz, AC3, 2 ch, 192 Kbps - Инис [отдельным файлом]
Аудио 3: English, 48.0 KHz, AC3, 2 ch, 192 Kbps [отдельным файлом]

Цитата:

За оцифровку VHS от "Варус Видео" спасибо Fikaloid. Синхронизация дубляжа - Dreven.
avs4x264.exe: -L x264_64.exe --pass 2 --bitrate 1920 --preset medium --ref 10 --deblock -1:-1 --merange 32 --bframes 10 --direct auto --b-adapt 2 --trellis 2 --no-fast-pskip --psy-rd 1.00:0.10 --partitions all --subme 10 --me umh --rc-lookahead 50 --sar 987:694 --stats
raw [info]: 718x576p 987:694 @ 25/1 fps (cfr)
x264 [info]: using SAR=987/694
x264 [info]: using cpu capabilities: MMX2 SSE2Fast LZCNT
x264 [info]: profile High, level 3.1
x264 [info]: frame I:1158 Avg QP:15.83 size: 53526
x264 [info]: frame P:26930 Avg QP:18.55 size: 23211
x264 [info]: frame B:117036 Avg QP:21.34 size: 6034
x264 [info]: consecutive B-frames: 1.5% 1.4% 4.7% 8.1% 14.6% 45.8% 11.5% 4.6% 4.2% 2.1% 1.5%
x264 [info]: mb I I16..4: 3.6% 87.8% 8.6%
x264 [info]: mb P I16..4: 1.4% 16.0% 1.0% P16..4: 41.7% 19.8% 16.4% 0.6% 0.2% skip: 2.9%
x264 [info]: mb B I16..4: 0.1% 1.6% 0.1% B16..8: 43.2% 9.3% 1.9% direct:10.9% skip:32.9% L0:45.6% L1:39.7% BI:14.7%
x264 [info]: 8x8 transform intra:87.8% inter:70.7%
x264 [info]: direct mvs spatial:98.6% temporal:1.4%
x264 [info]: coded y,uvDC,uvAC intra: 87.5% 70.3% 32.2% inter: 29.6% 32.3% 2.3%
x264 [info]: i16 v,h,dc,p: 30% 13% 14% 43%
x264 [info]: i8 v,h,dc,ddl,ddr,vr,hd,vl,hu: 17% 10% 17% 6% 9% 11% 8% 10% 12%
x264 [info]: i4 v,h,dc,ddl,ddr,vr,hd,vl,hu: 23% 9% 6% 7% 11% 15% 9% 10% 9%
x264 [info]: i8c dc,h,v,p: 33% 29% 26% 13%
x264 [info]: Weighted P-Frames: Y:6.2% UV:1.6%
x264 [info]: ref P L0: 37.7% 9.9% 19.9% 7.3% 7.4% 4.6% 5.1% 2.7% 3.0% 2.3% 0.3% 0.0%
x264 [info]: ref B L0: 67.0% 15.0% 6.5% 3.5% 2.6% 2.3% 1.9% 0.8% 0.3%
x264 [info]: ref B L1: 90.8% 9.2%
x264 [info]: kb/s:1919.99
x264 [total]: encoded 145124 frames, 11.89 fps, 1919.99 kb/s
General
Unique ID : 203131621422419975549509143698034840000 (0x98D1BA2C119F12FDBBD021BFFCD2D1C0)
Complete name : C:\Silent Fall\Silent Fall.mkv
Format : Matroska
Format version : Version 4 / Version 2
File size : 1.45 GiB
Duration : 1h 36mn
Overall bit rate : 2 146 Kbps
Encoded date : UTC 2015-10-26 17:07:59
Writing application : mkvmerge v8.4.0 ('A better way to fly') 64bit
Writing library : libebml v1.3.1 + libmatroska v1.4.2
DURATION : 01:34:49.426000000
NUMBER_OF_FRAMES : 1397
NUMBER_OF_BYTES : 34280
_STATISTICS_WRITING_APP : mkvmerge v8.4.0 ('A better way to fly') 64bit
_STATISTICS_WRITING_DATE_UT : 2015-10-26 17:07:59
_STATISTICS_TAGS : BPS DURATION NUMBER_OF_FRAMES NUMBER_OF_BYTES
Video
ID : 1
Format : AVC
Format/Info : Advanced Video Codec
Format profile : High@L3.1
Format settings, CABAC : Yes
Format settings, ReFrames : 10 frames
Codec ID : V_MPEG4/ISO/AVC
Duration : 1h 36mn
Bit rate : 1 920 Kbps
Width : 718 pixels
Height : 576 pixels
Display aspect ratio : 16:9
Frame rate mode : Constant
Frame rate : 25.000 fps
Color space : YUV
Chroma subsampling : 4:2:0
Bit depth : 8 bits
Scan type : Progressive
Bits/(Pixel*Frame) : 0.186
Stream size : 1.27 GiB (88%)
Writing library : x264 core 148 r2638 7599210
Encoding settings : cabac=1 / ref=10 / deblock=1:-1:-1 / analyse=0x3:0x133 / me=umh / subme=10 / psy=1 / psy_rd=1.00:0.10 / mixed_ref=1 / me_range=32 / chroma_me=1 / trellis=2 / 8x8dct=1 / cqm=0 / deadzone=21,11 / fast_pskip=0 / chroma_qp_offset=-3 / threads=6 / lookahead_threads=1 / sliced_threads=0 / nr=0 / decimate=1 / interlaced=0 / bluray_compat=0 / constrained_intra=0 / bframes=10 / b_pyramid=2 / b_adapt=2 / b_bias=0 / direct=3 / weightb=1 / open_gop=0 / weightp=2 / keyint=250 / keyint_min=25 / scenecut=40 / intra_refresh=0 / rc_lookahead=50 / rc=2pass / mbtree=1 / bitrate=1920 / ratetol=1.0 / qcomp=0.60 / qpmin=0 / qpmax=69 / qpstep=4 / cplxblur=20.0 / qblur=0.5 / ip_ratio=1.40 / aq=1:1.00
Language : English
Default : Yes
Forced : No
Audio
ID : 2
Format : AC-3
Format/Info : Audio Coding 3
Mode extension : CM (complete main)
Format settings, Endianness : Big
Codec ID : A_AC3
Duration : 1h 36mn
Bit rate mode : Constant
Bit rate : 224 Kbps
Channel(s) : 2 channels
Channel positions : Front: L R
Sampling rate : 48.0 KHz
Compression mode : Lossy
Stream size : 155 MiB (10%)
Title : Варус Видео
Language : Russian
Default : Yes
Forced : No
Text
ID : 3
Format : UTF-8
Codec ID : S_TEXT/UTF8
Codec ID/Info : UTF-8 Plain Text
Language : English
Default : No
Forced : No
Menu
00:00:00.000 : :Chapter 01
00:10:00.000 : :Chapter 02
00:20:00.000 : :Chapter 03
00:30:00.000 : :Chapter 04
00:40:00.000 : :Chapter 05
00:49:59.520 : :Chapter 06
00:59:33.600 : :Chapter 07
01:10:01.440 : :Chapter 08
01:20:00.000 : :Chapter 09
01:33:00.000 : :Chapter 10
01:36:43.960 : :Chapter 11



Скачать Безмолвная.схватка.Silent.Fall.(Брюс.Бересфорд.Bruce.Beresford).[1994.триллер.драма.детектив.DVDRip-AVC].[Dub].(Варус.Видео).+.[DVO].(Инис).+.[Sub].Eng.+.[Orig].Eng.torrent без регистрации
Золото ЗОЛОТАЯ РАЗДАЧА! СКАЧАННОЕ НЕ ЗАСЧИТЫВАЕТСЯ! Золото
Дата: Зарегистрирован   [ Тип: внутренний ] Как тут cкачать?
MAGNET ссылка
MAGNET ссылка


Скачать .torrent

18 KB

Статус: проверено DHT
Скачан: торрент - 49 раз, раздача полностью - 1 раз
Размер: 1,71 GB
Оценка:  5 (Голосов: 1)
Поблагодарили: 1
Поделиться ссылкой на эту раздачу с друзьями:
В контактеFacebookОдноклассникиTwitterLivejournalМой МирLiveinternet
 

 
Показать сообщения:    


Вы не можете начинать темы
Вы не можете отвечать на сообщения
Вы не можете редактировать свои сообщения
Вы не можете удалять свои сообщения
Вы не можете голосовать в опросах
Вы не можете прикреплять файлы к сообщениям
Вы можете скачивать файлы