Loading...
Error

Скачать Шерлок / Sherlock (сезоны 01-03) (ол МакГиган, Коки Гидройч, Эрос Лин) [2014, триллер, драма, криминал, детектив, BDRip-AVC] [Ukr DUB] + [Orig] + [Sub] (Eng) торрент без регистрации

 
Статистика раздачи
Размер:  8,79 GB   |    Скачан:  145 раз
Сидов:  22  [  0 KB/s  ]   Личеров:  4  [  0 KB/s  ]  
 
Автор Сообщение

leon030982

[] 

Шерлок / Sherlock


Год выпуска: 2010-2014
Страна: Великобритания, США
Жанр: драма, детектив
Продолжительность: 9x ~01:30:00
Перевод: Украинский [дублированный]
Оригинальный аудиопотк: английский
Cубтитры: Английские, Украинские [форсированные] (только 3-ий сезон)

Режиссер: Пол МакГиган / Paul McGuigan

В ролях: Бенедикт Камбербэтч, Мартин Фриман, Руперт Грейвз, Уна Стаббс, Лу Брили, Зои Телфорд, Питер Брук, Джемма Чан, Виннет Робинсон, Джини Спар


Сериал "Шерлок" от телеканала ВВС основан на работах сэра Артура Конан Дойля, но действие перенесено в наше время.
Военный врач, герой войны, возвращается домой из Афганистана после ранения и знакомится со странным, но харизматическим гением, который ищет соседа по квартире. Дальнейшее события происходят в Лондоне 2010 года.



Качество: BDRip-AVC [Исходник BluRay 1080p]
Формат: MKV
Видео кодек: H.264
Аудио кодек: AC3
Видео: 728x410 (16:9), 25.000 fps, H264 ~ 1116 Kbps, 0.150 bit/pixel
Аудио: 1-ый сезон -: 48 KHz, AC3, 2/0 (L,R) ch, ~192 kbps 48 KHz [Ukr DUB]
Аудио: 1-ый сезон -: 48 KHz, AC3, 2/0 (L,R) ch, ~192 kbps 48 KHz [Eng]
Аудио: 2-3-ий сезоны -: 48 KHz, AC3, 2/0 (L,R) ch, ~256 kbps [Ukr DUB]
Аудио: 2-3-ий сезоны -: 48 KHz, AC3, 2/0 (L,R) ch, ~256 kbps [Eng]

Релиз --

Код:

General
Unique ID                                : 229705117167107190293865062262070511892 (0xACCF98AA98F4B8029CE670FBFA830914)
Complete name                            : E:\Sherlock [Seasons 1-3] (2010-2014) [Ukr & Eng, Sub Eng] BDRip-AVC [Hurtom & New-Team]\Season 1 (2010)\Sherlock [S1-E1. A Study in Pink] (2010) [Ukr & Eng, Sub Eng] BDRip-AVC [Hurtom & New-Team].mkv
Format                                   : Matroska
Format version                           : Version 2
File size                                : 946 MiB
Duration                                 : 1h 28mn
Overall bit rate                         : 1 502 Kbps
Movie name                               : Шерлок [Сезон 1 | Епізод 1: Етюд у рожевих тонах] / Sherlock [Season 1 | Episode 1: A Study in Pink] (2010) BDRip-AVC Ukr/Eng | Sub Eng
Encoded date                             : UTC 2014-12-17 10:51:02
Writing application                      : mkvmerge v5.0.1 ('Es ist Sommer') built on Oct  9 2011 11:55:43
Writing library                          : libebml v1.2.2 + libmatroska v1.3.0

Video
ID                                       : 1
Format                                   : AVC
Format/Info                              : Advanced Video Codec
Format profile                           : High@L4.1
Format settings, CABAC                   : Yes
Format settings, ReFrames                : 11 frames
Codec ID                                 : V_MPEG4/ISO/AVC
Duration                                 : 1h 28mn
Bit rate                                 : 1 116 Kbps
Width                                    : 728 pixels
Height                                   : 410 pixels
Display aspect ratio                     : 16:9
Frame rate mode                          : Constant
Frame rate                               : 25.000 fps
Color space                              : YUV
Chroma subsampling                       : 4:2:0
Bit depth                                : 8 bits
Scan type                                : Progressive
Bits/(Pixel*Frame)                       : 0.150
Stream size                              : 686 MiB (72%)
Title                                    : BASTERD-94 (Hurtom) & dexter lex (New-Team)
Writing library                          : x264 core 130 r2273 b3065e6
Encoding settings                        : cabac=1 / ref=11 / deblock=1:-1:-1 / analyse=0x3:0x113 / me=umh / subme=11 / psy=1 / psy_rd=1.00:0.05 / mixed_ref=1 / me_range=48 / chroma_me=1 / trellis=2 / 8x8dct=1 / cqm=0 / deadzone=21,11 / fast_pskip=0 / chroma_qp_offset=-3 / threads=6 / lookahead_threads=1 / sliced_threads=0 / nr=0 / decimate=1 / interlaced=0 / bluray_compat=0 / constrained_intra=0 / bframes=10 / b_pyramid=2 / b_adapt=2 / b_bias=0 / direct=3 / weightb=1 / open_gop=0 / weightp=2 / keyint=250 / keyint_min=25 / scenecut=40 / intra_refresh=0 / rc_lookahead=60 / rc=2pass / mbtree=1 / bitrate=1116 / ratetol=1.0 / qcomp=0.60 / qpmin=0 / qpmax=69 / qpstep=4 / cplxblur=20.0 / qblur=0.5 / vbv_maxrate=14000 / vbv_bufsize=14000 / nal_hrd=none / ip_ratio=1.40 / aq=2:1.00
Default                                  : Yes
Forced                                   : Yes

Audio #1
ID                                       : 2
Format                                   : AC-3
Format/Info                              : Audio Coding 3
Mode extension                           : CM (complete main)
Format settings, Endianness              : Big
Codec ID                                 : A_AC3
Duration                                 : 1h 28mn
Bit rate mode                            : Constant
Bit rate                                 : 192 Kbps
Channel(s)                               : 2 channels
Channel positions                        : Front: L R
Sampling rate                            : 48.0 KHz
Compression mode                         : Lossy
Stream size                              : 121 MiB (13%)
Title                                    : AC3 2.0 @ 192 Kbps - Українська (професійний дубльований) | Студія «1+1»
Language                                 : Ukrainian
Default                                  : Yes
Forced                                   : Yes

Audio #2
ID                                       : 3
Format                                   : AC-3
Format/Info                              : Audio Coding 3
Mode extension                           : CM (complete main)
Format settings, Endianness              : Big
Codec ID                                 : A_AC3
Duration                                 : 1h 28mn
Bit rate mode                            : Constant
Bit rate                                 : 192 Kbps
Channel(s)                               : 2 channels
Channel positions                        : Front: L R
Sampling rate                            : 48.0 KHz
Compression mode                         : Lossy
Stream size                              : 121 MiB (13%)
Title                                    : AC3 2.0 @ 192 Kbps - Англійська (оригінал)
Language                                 : English
Default                                  : No
Forced                                   : No

Text
ID                                       : 4
Format                                   : UTF-8
Codec ID                                 : S_TEXT/UTF8
Codec ID/Info                            : UTF-8 Plain Text
Language                                 : English
Default                                  : No
Forced                                   : No



Скачать Шерлок.Sherlock.(сезоны.01-03).(ол.МакГиган.Коки.Гидройч.Эрос.Лин).[2014.триллер.драма.криминал.детектив.BDRip-AVC].[Ukr.DUB].+.[Orig].+.[Sub].(Eng).torrent без регистрации
Золото ЗОЛОТАЯ РАЗДАЧА! СКАЧАННОЕ НЕ ЗАСЧИТЫВАЕТСЯ! Золото
Дата: Зарегистрирован   [ Тип: внешний ] Как тут cкачать?
MAGNET ссылка
MAGNET ссылка


Скачать .torrent

24 KB

Статус: проверено DHT
Скачан: торрент - 145 раз, раздача полностью - 102 раз
Размер: 8,79 GB
Оценка:  5 (Голосов: 2)
Поблагодарили: 6
Поделиться ссылкой на эту раздачу с друзьями:
В контактеFacebookОдноклассникиTwitterLivejournalМой МирLiveinternet
 

 
Показать сообщения:    


Вы не можете начинать темы
Вы не можете отвечать на сообщения
Вы не можете редактировать свои сообщения
Вы не можете удалять свои сообщения
Вы не можете голосовать в опросах
Вы не можете прикреплять файлы к сообщениям
Вы можете скачивать файлы