Loading...
Error

Скачать Окно спальни / The Bedroom Window (Кёртис Хэнсон) [1987, триллер, детектив, драма, WEB-DLRip-AVC] [MVO]+[DVO]x2+[Sub]x2 торрент без регистрации

 
Статистика раздачи
Размер:  2,4 GB   |    Скачан:  45 раз

Полного источника не было: 23 минуты

 
Автор Сообщение

Marsianka

[] 

Окно спальни / The Bedroom Window (1987) WEB-DLRip-AVC
Производство: США, De Laurentiis Entertainment Group (DEG)
Жанр: триллер, детектив, драма

Режиссер: Кёртис Хэнсон
Актеры: Стив Гуттенберг, Элизабет МакГоверн, Изабель Юппер, Пол Шенар, Карл Ламбли, Уоллес Шон, Фредерик Коффин, Брэд Гринквист, Роберт Шенккан, Мори Чайкин

Описание:
Первый успешный фильм в карьере режиссера Кертиса Хенсона, открывший ему дорогу в большой кинематограф. Картина поставлена по роману Энн Холден "Свидетели" и снята в хичкоковском ключе (в ней сразу усматриваешь аналогии с "Окном во двор") с использованием традиционных для Мастера сюжетных перипетий. Пытаясь изобличить серийного убийцу, которого его подруга видела из окна, молодой архитектор сам становится главным подозреваемым... . Несмотря на низкий бюджет, триллер Хенсона получил хорошую кассу и отзывы критики (отмечавшей, правда, не совсем убедительную игру Стива Гуттенберга). Действие фильма разворачивается в Балтиморе. Обратите внимание на бар "У Эдгара", название и оформление которого связаны с именем Эдгара По, скончавшегося и похороненного в этом городе. Совсем недавно известный режиссер, автор сценария всем хорошо знакомой крейвеновской трилогии "Крик" Кевин Уильямсон заявил о том, что приступает к римейку ленты "Окно спальни". Картина должна быть готова в 2012 году (между 4-ым и 5-ым "Криком")...



Релиз от: FAGOT100 (NNM-CLUB)
Продолжительность: 01:53:28
Качество видео: WEB-DLRip-AVC
Перевод: Профессиональный (многоголосый, закадровый), профессиональный (двухголосый, закадровый) х2
Язык субтитров: Русский, английский
Вид субтитров: Вшитые, отключаемые
Видео: AVC, 1024x432 (2.35:1), 23.976 fps, 2 199 Kbps (0.207 bit/pixel)
Аудио #1: AC-3, 48.0 KHz, 6 ch, 448 Kbps, CBR (Russian) - многоголосый (CP Digital)
Аудио #2: AC-3, 48.0 KHz, 2 ch, 192 Kbps, CBR (Russian) - двухголосый (НТВ+)
Аудио #3: AC-3, 48.0 KHz, 2 ch, 192 Kbps, CBR (Russian) - двухголосый (Екатеринбург Арт)

Формат : Matroska
Версия формата : Version 2
Размер файла : 2,40 Гбайт
Продолжительность : 1 ч. 53 м.
Общий поток : 3033 Кбит/сек
Название фильма : The.Bedroom.Window.1987
Дата кодирования : UTC 2015-10-28 10:39:04
Программа кодирования : mkvmerge v5.3.0 ('I could have danced') built on Feb 9 2012 10:38:07
Библиотека кодирования : libebml v1.2.3 + libmatroska v1.3.0
Attachment : Yes

Видео
Идентификатор : 1
Формат : AVC
Формат/Информация : Advanced Video Codec
Профиль формата : High@L4.1
Параметр CABAC формата : Да
Параметр ReFrames формата : 8 кадров
Идентификатор кодека : V_MPEG4/ISO/AVC
Продолжительность : 1 ч. 53 м.
Битрейт : 2199 Кбит/сек
Ширина : 1024 пикселя
Высота : 432 пикселя
Соотношение сторон : 2,40:1
Режим частоты кадров : Постоянный
Частота кадров : 23,976 кадра/сек
Цветовое пространство : YUV
Субдискретизация насыщенности : 4:2:0
Битовая глубина : 8 бит
Тип развёртки : Прогрессивная
Бит/(Пиксели*Кадры) : 0.207
Размер потока : 1,70 Гбайт (71%)
Библиотека кодирования : x264 core 146 r2538 121396c
Настройки программы : cabac=1 / ref=8 / deblock=1:-2:-2 / analyse=0x3:0x133 / me=umh / subme=10 / psy=1 / psy_rd=1.00:0.15 / mixed_ref=1 / me_range=32 / chroma_me=1 / trellis=2 / 8x8dct=1 / cqm=0 / deadzone=21,11 / fast_pskip=0 / chroma_qp_offset=-3 / threads=12 / lookahead_threads=1 / sliced_threads=0 / nr=0 / decimate=0 / interlaced=0 / bluray_compat=0 / constrained_intra=0 / bframes=6 / b_pyramid=2 / b_adapt=2 / b_bias=0 / direct=3 / weightb=1 / open_gop=0 / weightp=2 / keyint=240 / keyint_min=23 / scenecut=40 / intra_refresh=0 / rc=2pass / mbtree=0 / bitrate=2199 / ratetol=1.0 / qcomp=0.60 / qpmin=0 / qpmax=69 / qpstep=4 / cplxblur=20.0 / qblur=0.5 / ip_ratio=1.40 / pb_ratio=1.30 / aq=1:0.90
Язык : English
Default : Да
Forced : Нет

Аудио #1
Идентификатор : 2
Формат : AC-3
Формат/Информация : Audio Coding 3
Расширение режима : CM (complete main)
Параметр Endianness формата : Big
Идентификатор кодека : A_AC3
Продолжительность : 1 ч. 53 м.
Вид битрейта : Постоянный
Битрейт : 448 Кбит/сек
Каналы : 6 каналов
Расположение каналов : Front: L C R, Side: L R, LFE
Частота : 48,0 КГц
Битовая глубина : 16 бит
Метод сжатия : С потерями
Размер потока : 364 Мбайт (15%)
Заголовок : MVO @ CP Digital
Язык : Russian
Default : Да
Forced : Нет

Аудио #2
Идентификатор : 3
Формат : AC-3
Формат/Информация : Audio Coding 3
Расширение режима : CM (complete main)
Параметр Endianness формата : Big
Идентификатор кодека : A_AC3
Продолжительность : 1 ч. 53 м.
Вид битрейта : Постоянный
Битрейт : 192 Кбит/сек
Каналы : 2 канала
Расположение каналов : Front: L R
Частота : 48,0 КГц
Битовая глубина : 16 бит
Метод сжатия : С потерями
Размер потока : 156 Мбайт (6%)
Заголовок : DVO @ НТВ
Язык : Russian
Default : Нет
Forced : Нет

Аудио #3
Идентификатор : 4
Формат : AC-3
Формат/Информация : Audio Coding 3
Расширение режима : CM (complete main)
Параметр Endianness формата : Big
Идентификатор кодека : A_AC3
Продолжительность : 1 ч. 53 м.
Вид битрейта : Постоянный
Битрейт : 192 Кбит/сек
Каналы : 2 канала
Расположение каналов : Front: L R
Частота : 48,0 КГц
Битовая глубина : 16 бит
Метод сжатия : С потерями
Размер потока : 156 Мбайт (6%)
Заголовок : DVO @ Екатеринбург Арт
Язык : Russian
Default : Нет
Forced : Нет

Текст #1
Идентификатор : 5
Формат : UTF-8
Идентификатор кодека : S_TEXT/UTF8
Идентификатор кодека/Информация : UTF-8 Plain Text
Заголовок : subtitle rus
Язык : Russian
Default : Нет
Forced : Нет

Текст #2
Идентификатор : 6
Формат : UTF-8
Идентификатор кодека : S_TEXT/UTF8
Идентификатор кодека/Информация : UTF-8 Plain Text
Заголовок : subtitle eng
Язык : English
Default : Нет
Forced : Нет



Скачать Окно.спальни.The.Bedroom.Window.(Кёртис.Хэнсон).[1987.триллер.детектив.драма.WEB-DLRip-AVC].[MVO]+[DVO]x2+[Sub]x2.torrent без регистрации
Золото ЗОЛОТАЯ РАЗДАЧА! СКАЧАННОЕ НЕ ЗАСЧИТЫВАЕТСЯ! Золото
Дата: Зарегистрирован   [ Тип: внутренний ] Как тут cкачать?
MAGNET ссылка
MAGNET ссылка


Скачать .torrent

13 KB

Статус: проверено DHT
Скачан: торрент - 45 раз, раздача полностью - 2 раз
Размер: 2,4 GB
Оценка:  5 (Голосов: 1)
Поблагодарили: 1
Поделиться ссылкой на эту раздачу с друзьями:
В контактеFacebookОдноклассникиTwitterLivejournalМой МирLiveinternet
 

 
Показать сообщения:    


Вы не можете начинать темы
Вы не можете отвечать на сообщения
Вы не можете редактировать свои сообщения
Вы не можете удалять свои сообщения
Вы не можете голосовать в опросах
Вы не можете прикреплять файлы к сообщениям
Вы можете скачивать файлы