Loading...
Error

Скачать Джекилл и Хайд / Jekyll & Hyde (Сезон 01, серии 01-06 из 10) (Стюарт Сваасанд, Колин Тиг) [2015, ужасы, фэнтези, боевик, драма, приключения, HDTVRip] [MVO] (ViruseProject) торрент без регистрации

 
Статистика раздачи
Размер:  3,32 GB   |    Скачан:  62 раза
Сидов:  1  [  0 KB/s  ]  
 
Автор Сообщение

leon030982

[] 

Джекилл и Хайд / Jekyll & Hyde


Год выпуска: 2015
Страна: Великобритания
Жанр: ужасы, фэнтези, боевик, драма, приключения
Продолжительность: 00:46:00
Перевод: Профессиональный (многоголосый закадровый) ViruseProject
субтитры: нет

Режиссёр: Стюарт Сваасанд, Колин Тиг

В ролях: Оливер Гилберт, Том Рис Харрис, Тони Вэй, Нил Бишоп, Дебора Росан, Молли Уайтхаус, Дэвид Барк-Джонс, Том Бейтман, Руби Бенталл и др.

Описание: Действие разворачивается в Лондоне 1930-х годов, где Роберт Джекил, внук Генри Джекила, воспитанный на Цейлоне приёмными родителями, пытается узнать правду о своей настоящей семье и понять причину своих странных "приступов". По пятам за Робертом следует "Ми-И", британская спецслужба, занимающаяся паранормальными явлениями, а также агенты некоего сообщества, называемого "Тенебри". На фоне гротескно-мрачных декораций, напоминающих о "Бэтмене", "Вороне" и "BioShock", бродят порождения самых ужасных кошмаров.

Сценарий сериала написан скандально известным писателем Чарли Хигсоном по мотивам знаменитой повести Роберта Льюиса Стивенсона "Странная история доктора Джекила и мистера Хайда".





смотреть ТРЕЙЛЕР сериала на русском на youtube
скачать СЕМПЛ с multi-up

Качество: HDTVRip
Формат: AVI
Видео кодек: XviD
Аудио кодек: MP3
Видео: 720x400 (1.80:1), 25 fps, XviD MPEG-4 ~1502 kbps avg, 0.21 bit/pixel
Аудио: 48 kHz, MPEG Layer 3, 2 ch, ~192.00 kbps avg

ВНИМАНИЕ! Добавлена 6-я серия!
General
Complete name : E:\ОЗВУЧКА\СЕРИАЛЫ №2\Jekyll.And.Hyde.S01.ViruseProject\Jekyll.And.Hyde.S01.ViruseProject\Jekyll.And.Hyde.S01E01.ViruseProject.avi
Format : AVI
Format/Info : Audio Video Interleave
File size : 571 MiB
Duration : 46mn 49s
Overall bit rate : 1 705 Kbps
Writing application : VirtualDubMod 1.5.10.2 (build 2540/release)
Writing library : VirtualDubMod build 2540/release
Video
ID : 0
Format : MPEG-4 Visual
Format profile : Advanced Simple@L5
Format settings, BVOP : 2
Format settings, QPel : No
Format settings, GMC : No warppoints
Format settings, Matrix : Default (H.263)
Muxing mode : Packed bitstream
Codec ID : XVID
Codec ID/Hint : XviD
Duration : 46mn 49s
Bit rate : 1 503 Kbps
Width : 720 pixels
Height : 400 pixels
Display aspect ratio : 16:9
Frame rate : 25.000 fps
Color space : YUV
Chroma subsampling : 4:2:0
Bit depth : 8 bits
Scan type : Progressive
Compression mode : Lossy
Bits/(Pixel*Frame) : 0.209
Stream size : 503 MiB (88%)
Writing library : XviD 73
Audio
ID : 1
Format : MPEG Audio
Format version : Version 1
Format profile : Layer 3
Mode : Joint stereo
Mode extension : MS Stereo
Codec ID : 55
Codec ID/Hint : MP3
Duration : 46mn 49s
Bit rate mode : Constant
Bit rate : 192 Kbps
Channel(s) : 2 channels
Sampling rate : 48.0 KHz
Compression mode : Lossy
Stream size : 64.3 MiB (11%)
Alignment : Aligned on interleaves
Interleave, duration : 40 ms (1.00 video frame)
Interleave, preload duratio : 504 ms
Внимание! Раздача ведётся путём добавления новых серий; при каждом добавлении создётся новый торрент. Чтобы начать докачку новой серии, пользователям необходимо сделать следующее:
Остановить скачивание.
Удалить старый торрент у себя из клиента (старые серии удалять не надо).
Скачать новый торрент и запустить его у себя в клиенте вместо старого, при этом указать клиенту путь в старую папку куда и должно происходить скачивание новых серий.
Ваш клиент при этом должен произвести хеширование (проверку) старой папки (если не производит сам - помогите ему сделать это), и будет докачивать только те серии которых у вас ещё нет. Старые серии при этом не удаляются, а продолжают раздаваться!
Eсли вы уже удалили старые серии, то предотвратить повторную закачку старых серий можно, отжав галочку в соответсвующих местах при запуске нового торрента. По возможности, желательно не удалять старые серии как можно дольше чтобы релизёр не столько продолжал раздавать старые серии, а смог сконцентрироваться на новых.



Скачать Джекилл.и.Хайд.Jekyll.&.Hyde.(Сезон.01.серии.01-06.из.10).(Стюарт.Сваасанд.Колин.Тиг).[2015.ужасы.фэнтези.боевик.драма.приключения.HDTVRip].[MVO].(ViruseProject).torrent без регистрации
Золото ЗОЛОТАЯ РАЗДАЧА! СКАЧАННОЕ НЕ ЗАСЧИТЫВАЕТСЯ! Золото
Дата: Зарегистрирован   [ Тип: внутренний ] Как тут cкачать?
MAGNET ссылка
MAGNET ссылка


Скачать .torrent

18 KB

Статус: проверено DHT
Скачан: торрент - 62 раз, раздача полностью - 4 раз
Размер: 3,32 GB
Оценка:  - (Голосов: 0)
Поблагодарили: 0
Поделиться ссылкой на эту раздачу с друзьями:
В контактеFacebookОдноклассникиTwitterLivejournalМой МирLiveinternet
 

 

leon030982

[] 

Код:

Добавлена 6-я серия
 
Показать сообщения:    


Вы не можете начинать темы
Вы не можете отвечать на сообщения
Вы не можете редактировать свои сообщения
Вы не можете удалять свои сообщения
Вы не можете голосовать в опросах
Вы не можете прикреплять файлы к сообщениям
Вы можете скачивать файлы