Loading...
Error

Скачать Родина / Homeland (05х02-05 из 12) (Джек Бендер) [2015, триллер, драма, криминал, детектив, HDTVRip] [1080p] [MVO (Amedia)]+[Eng]+[Sub Rus, Eng] торрент без регистрации

 
Статистика раздачи
Размер:  7,72 GB   |    Скачан:  1337 раз
Сидов:  1  [  0 KB/s  ]  
 
Автор Сообщение

МихаНЕзатор

[] 

Информация о фильме
Название: Родина
Оригинальное название: Homeland
Год выхода: 2015
Жанр: триллер, драма, детектив
Режиссер: Майкл Куэста, Лесли Линка Глаттер, Кларк Джонсон

В ролях: Клэр Дэйнс, Дэмиэн Льюис, Мэнди Пэтинкин, Морена Баккарин, Дэвид Хэрвуд, Джексон Пэйс, Морган Сэйлор, Руперт Френд, Диего Клаттенхофф, Дэвид Марсиано

О фильме:
В центре сюжета находятся сержант морской пехоты ВМФ США Николас Броди, вернувшийся домой после восьми лет отсутствия без вести в Ираке, и Кэрри Мэтисон, офицер ЦРУ, которая подозревает его в причастности к подготовке террористической атаки на Америку.

Страна: США
Продолжительность: ~00:50:00 серия
Перевод: Профессиональный (многоголосый, закадровый) Amedia



Файл
Качество: HDTVRip 1080p
Контейнер: MKV
Видео: AVC 1920x1080 16:9 23.976 fps 4664 Kbps
Аудио: Русский AC-3 48kHz 2 channels 192 Kbps
Аудио 2: Английский AC-3 48kHz 6 channels 384 Kbps
Субтитры: Английские UTF-8 Plain Text

АНОНСЫ ПОПУЛЯРНЫХ РАЗДАЧ


Торрент обновлён, добавлена 5-я серия!
General
Format : Matroska
Format version : Version 4 / Version 2
File size : 1.82 GiB
Duration : 48mn 47s
Overall bit rate : 5 346 Kbps
Encoded date : UTC 2015-10-26 15:03:30
Writing application : mkvmerge v6.0.0 ('Coming Up For Air') built on Jan 20 2013 09:52:00
Writing library : libebml v1.3.0 + libmatroska v1.4.0
Attachment : Yes / Yes / Yes / Yes
Video
ID : 1
Format : AVC
Format/Info : Advanced Video Codec
Format profile : High@L4.0
Format settings, CABAC : Yes
Format settings, ReFrames : 4 frames
Codec ID : V_MPEG4/ISO/AVC
Duration : 48mn 47s
Bit rate : 4 664 Kbps
Width : 1 920 pixels
Height : 1 080 pixels
Display aspect ratio : 16:9
Frame rate mode : Constant
Frame rate : 23.976 fps
Color space : YUV
Chroma subsampling : 4:2:0
Bit depth : 8 bits
Scan type : Progressive
Bits/(Pixel*Frame) : 0.094
Stream size : 1.59 GiB (87%)
Language : English
Default : Yes
Forced : No
Color primaries : BT.709
Transfer characteristics : BT.709
Matrix coefficients : BT.709
Audio #1
ID : 2
Format : AC-3
Format/Info : Audio Coding 3
Mode extension : CM (complete main)
Format settings, Endianness : Big
Codec ID : A_AC3
Duration : 48mn 47s
Bit rate mode : Constant
Bit rate : 192 Kbps
Channel(s) : 2 channels
Channel positions : Front: L R
Sampling rate : 48.0 KHz
Bit depth : 16 bits
Compression mode : Lossy
Stream size : 67.0 MiB (4%)
Language : Russian
Default : Yes
Forced : No
Audio #2
ID : 3
Format : AC-3
Format/Info : Audio Coding 3
Mode extension : CM (complete main)
Format settings, Endianness : Big
Codec ID : A_AC3
Duration : 48mn 47s
Bit rate mode : Constant
Bit rate : 384 Kbps
Channel(s) : 6 channels
Channel positions : Front: L C R, Side: L R, LFE
Sampling rate : 48.0 KHz
Bit depth : 16 bits
Compression mode : Lossy
Stream size : 134 MiB (7%)
Language : English
Default : No
Forced : No
Text
ID : 4
Format : UTF-8
Codec ID : S_TEXT/UTF8
Codec ID/Info : UTF-8 Plain Text
Language : English
Default : No
Forced : No



Скачать Родина.Homeland.(05х02-05.из.12).(Джек.Бендер).[2015.триллер.драма.криминал.детектив.HDTVRip].[1080p].[MVO.(Amedia)]+[Eng]+[Sub.Rus.Eng].torrent без регистрации
Золото ЗОЛОТАЯ РАЗДАЧА! СКАЧАННОЕ НЕ ЗАСЧИТЫВАЕТСЯ! Золото
Дата: Зарегистрирован   [ Тип: внутренний ] Как тут cкачать?
MAGNET ссылка
MAGNET ссылка


Скачать .torrent

39 KB

Статус: проверено DHT
Скачан: торрент - 1337 раз, раздача полностью - 3 раз
Размер: 7,72 GB
Оценка:  - (Голосов: 0)
Поблагодарили: 0
Поделиться ссылкой на эту раздачу с друзьями:
В контактеFacebookОдноклассникиTwitterLivejournalМой МирLiveinternet
 

 
Показать сообщения:    


Вы не можете начинать темы
Вы не можете отвечать на сообщения
Вы не можете редактировать свои сообщения
Вы не можете удалять свои сообщения
Вы не можете голосовать в опросах
Вы не можете прикреплять файлы к сообщениям
Вы можете скачивать файлы