Loading...
Error

Скачать Первая сила / The First Power (Роберт Резникофф) [1990, триллер, ужасы, BDRip-AVC] [AVO (А.Гаврилов)]+[MVO]+[Оригинал] торрент без регистрации

 
Статистика раздачи
Размер:  2,33 GB   |    Скачан:  57 раз
Сидов:  1  [  0 KB/s  ]  
 
Автор Сообщение

Marsianka

[] 

✦Название: Первая сила
✦Оригинальное название: The First Power (Pentagram)
✦Год выпуска: 1990
✦Жанр: триллер, ужасы
✦Выпущено: США, Interscope Communications, Nelson Entertainment

Режиссер: Роберт Резникофф

В ролях: Лу Даймонд Филлипс, Трэйси Гриффит, Джефф Кобер, Майкелти Уильямсон, Элизабет Арлен, Деннис Липском, Кармен Ардженциано, Джулианна МакКарти, Нада Деспотович, Клэйтон Ланди, Хансфорд Роу, Филип Эбботт, Дэвид Гэйл, Дж. Патрик МакНамара, Лиза Спечт, Марк Бринглсон, Уильям Фэйр, Брайан Либби, Майкл МакНаб

О фильме: После долгой охоты, детектив Расселл Логан, наконец-то, арестовывает зверского ритуального убийцу и наблюдает за его казнью в Сан Квентине. Однако, когда ритуальные убийства начинают происходить снова, у Логана появляются видения и он обращается за помощью к экстрасенсу. Вместе они обнаруживают, что ритуальный убийца — это один из учеников Сатаны, обладающий ужасной силой перевоплощения в тела других людей. Теперь Логан должен приступить к поискам убийцы снова, не зная где он, и что более ужасно, в кого он перевоплотился на этот раз...



✦Релиз от: FAGOT100 (NNM-CLUB)
✦Продолжительность: 01:38:34
✦Качество видео: BDRip-AVC
✦Перевод: Авторский (одноголосый, закадровый) А.Гаврилов, профессиональный (многоголосый, закадровый)
✦Субтитры: Отсутствуют

✦Видео: AVC, 1024x552, 23.976 fps, 2 453 Kbps (0.181 bit/pixel)
✦Аудио #1: AC-3, 48.0 KHz, 2 ch, 256 Kbps, CBR (Russian) - авторский
✦Аудио #2: AC-3, 48.0 KHz, 3 ch, 448 Kbps, CBR (Russian) - многоголосый
✦Аудио #3: AC-3, 48.0 KHz, 2 ch, 224 Kbps, CBR (English) - оригинал
Формат : Matroska
Версия формата : Version 2
Размер файла : 2,33 Гбайт
Продолжительность : 1 ч. 38 м.
Общий поток : 3379 Кбит/сек
Дата кодирования : UTC 2015-06-20 01:39:47
Программа кодирования : mkvmerge v5.3.0 ('I could have danced') built on Feb 9 2012 10:38:07
Библиотека кодирования : libebml v1.2.3 + libmatroska v1.3.0
Attachment : Yes

Видео
Идентификатор : 1
Формат : AVC
Формат/Информация : Advanced Video Codec
Профиль формата : High@L4.1
Параметр CABAC формата : Да
Параметр ReFrames формата : 10 кадров
Идентификатор кодека : V_MPEG4/ISO/AVC
Продолжительность : 1 ч. 38 м.
Битрейт : 2453 Кбит/сек
Ширина : 1024 пикселя
Высота : 552 пикселя
Соотношение сторон : 1,85:1
Режим частоты кадров : Постоянный
Частота кадров : 23,976 кадра/сек
Цветовое пространство : YUV
Субдискретизация насыщенности : 4:2:0
Битовая глубина : 8 бит
Тип развёртки : Прогрессивная
Бит/(Пиксели*Кадры) : 0.181
Размер потока : 1,64 Гбайт (71%)
Библиотека кодирования : x264 core 146 r2538 121396c
Настройки программы : cabac=1 / ref=10 / deblock=1:-3:-3 / analyse=0x3:0x133 / me=umh / subme=10 / psy=1 / psy_rd=1.00:0.00 / mixed_ref=1 / me_range=32 / chroma_me=1 / trellis=2 / 8x8dct=1 / cqm=0 / deadzone=21,11 / fast_pskip=1 / chroma_qp_offset=-2 / threads=12 / lookahead_threads=1 / sliced_threads=0 / nr=0 / decimate=0 / interlaced=0 / bluray_compat=0 / constrained_intra=0 / bframes=6 / b_pyramid=2 / b_adapt=2 / b_bias=0 / direct=3 / weightb=1 / open_gop=0 / weightp=2 / keyint=240 / keyint_min=23 / scenecut=40 / intra_refresh=0 / rc=2pass / mbtree=0 / bitrate=2453 / ratetol=1.0 / qcomp=0.60 / qpmin=0 / qpmax=69 / qpstep=4 / cplxblur=20.0 / qblur=0.5 / ip_ratio=1.40 / pb_ratio=1.30 / aq=1:1.00
Язык : English
Default : Да
Forced : Нет

Аудио #1
Идентификатор : 2
Формат : AC-3
Формат/Информация : Audio Coding 3
Расширение режима : CM (complete main)
Параметр Endianness формата : Big
Идентификатор кодека : A_AC3
Продолжительность : 1 ч. 38 м.
Вид битрейта : Постоянный
Битрейт : 256 Кбит/сек
Каналы : 2 канала
Расположение каналов : Front: L R
Частота : 48,0 КГц
Битовая глубина : 16 бит
Метод сжатия : С потерями
Размер потока : 180 Мбайт (8%)
Заголовок : Авторский А.Гаврилов
Язык : Russian
Default : Да
Forced : Нет

Аудио #2
Идентификатор : 3
Формат : AC-3
Формат/Информация : Audio Coding 3
Расширение режима : CM (complete main)
Параметр Endianness формата : Big
Идентификатор кодека : A_AC3
Продолжительность : 1 ч. 38 м.
Вид битрейта : Постоянный
Битрейт : 448 Кбит/сек
Каналы : 3 канала
Расположение каналов : Front: L C R
Частота : 48,0 КГц
Битовая глубина : 16 бит
Метод сжатия : С потерями
Задержка видео : 27 с.
Размер потока : 316 Мбайт (13%)
Заголовок : Профессиональный многоголосый
Язык : Russian
Default : Нет
Forced : Нет

Аудио #3
Идентификатор : 4
Формат : AC-3
Формат/Информация : Audio Coding 3
Расширение режима : CM (complete main)
Параметр Endianness формата : Big
Идентификатор кодека : A_AC3
Продолжительность : 1 ч. 38 м.
Вид битрейта : Постоянный
Битрейт : 224 Кбит/сек
Каналы : 2 канала
Расположение каналов : Front: L R
Частота : 48,0 КГц
Битовая глубина : 16 бит
Метод сжатия : С потерями
Размер потока : 158 Мбайт (7%)
Язык : English
Default : Нет
Forced : Нет



Скачать Первая.сила.The.First.Power.(Роберт.Резникофф).[1990.триллер.ужасы.BDRip-AVC].[AVO.(А.Гаврилов)]+[MVO]+[Оригинал].torrent без регистрации
Золото ЗОЛОТАЯ РАЗДАЧА! СКАЧАННОЕ НЕ ЗАСЧИТЫВАЕТСЯ! Золото
Дата: Зарегистрирован   [ Тип: внутренний ] Как тут cкачать?
MAGNET ссылка
MAGNET ссылка


Скачать .torrent

12 KB

Статус: проверено DHT
Скачан: торрент - 57 раз, раздача полностью - 4 раз
Размер: 2,33 GB
Оценка:  - (Голосов: 0)
Поблагодарили: 1
Поделиться ссылкой на эту раздачу с друзьями:
В контактеFacebookОдноклассникиTwitterLivejournalМой МирLiveinternet
 

 
Показать сообщения:    


Вы не можете начинать темы
Вы не можете отвечать на сообщения
Вы не можете редактировать свои сообщения
Вы не можете удалять свои сообщения
Вы не можете голосовать в опросах
Вы не можете прикреплять файлы к сообщениям
Вы можете скачивать файлы