Loading...
Error

Скачать Часы апокалипсиса / Pandora's Clock (Эрик Ланёвилль) [1996, боевик, триллер, драма, SATRip] [MVO] торрент без регистрации

 
Статистика раздачи
Размер:  2,51 GB   |    Скачан:  49 раз
Сидов:  1  [  0 KB/s  ]  
 
Автор Сообщение

Marsianka

[] 

Информация о фильме
Название: Часы апокалипсиса
Оригинальное название: Pandora's Clock
Год выхода: 1996
Жанр: боевик, триллер, драма
Режиссер: Эрик Ланёвилль
В ролях: Ричард Дин Андерсон, Дафна Зунига, Джейн Ливз, Ричард Лосон, Стивен Рут, Тим Грим, Эдвард Херрманн, Роберт Гийом, Роберт Лоджа, Джерри Хардин

Описание: В канун Рождества Боинг — 747 вылетел из Франкфурта в Нью-Йорк. Но после взлета один из пассажиров потерял сознание. ЦРУ предполагает, что он заразился неизвестным вирусом, похищенным из секретной советской лаборатории. Этот страшный вирус передается повоздуху, от него не существует лекарств и он способен убить миллионы людей.

Капитан Холланд просит срочной посадки. Но ни один аэропорт не соглашается принимать самолет. Узнав, что директор ЦРУ убеждает президента США уничтожить самолет, Холланд берет ситуацию под контроль. Сражаясь со временем, нехваткой топлива, правительством, международными террористами, ускользая от ракет — убийц, мужественный капитан ведет свое воздушное судно к спасению.

Но если самолет приземлится, всему человечеству грозит гибель.



Страна: США
Продолжительность: 01:59:00
Перевод: Профессиональный (многоголосый закадровый) - Екатеринбург-Арт

Файл
Формат: MP4
Качество: SATRip
Видео: 720х528, (4:3), 2832 Кбит/сек, AVC, 29,970 кадров/сек
Аудио: AAC, 128 Кбит/сек, 2 канала, 48,0 КГц
Общее
Полное имя : F:ФильмыPandora's Clock (1996).mp4
Формат : MPEG-4
Профиль формата : QuickTime
Идентификатор кодека : qt
Размер файла : 2,51 Гбайт
Продолжительность : 1 ч. 59 м.
Общий поток : 3000 Кбит/сек
Название фильма : Pandora's Clock (1996)
Описание : This video is about Pandora's Clock (1996)
Дата кодирования : UTC 2015-03-01 22:31:19
Дата пометки : UTC 2015-03-02 02:32:19
Библиотека кодирования : Apple QuickTime
com.apple.quicktime.keywords : Quantum Airlines flight 66 has just taken off from Frankfurt,Germany bound for New York's JFK International Airport with 247 passengers aboard. After take-off,a man infected with a Doomsday Virus passes out while a flight attendant and doctor try to save the man. The pilot tries to land the plane but can't because the people on the ground know about the virus. An ambassador and his secretary help the pilot struggle through the government's secret attempt to shoot flight 66 out of the air. And if the plane does land,Doomsday has arrived on earth.
com.apple.quicktime.author : contango
com.apple.quicktime.title : Pandora's Clock (1996)

Видео
Идентификатор : 1
Формат : AVC
Формат/Информация : Advanced Video Codec
Профиль формата : High@L3.1
Параметр CABAC формата : Да
Параметр ReFrames формата : 2 кадра
Параметр GOP формата : M=2, N=15
Идентификатор кодека : avc1
Идентификатор кодека/Информация : Advanced Video Coding
Продолжительность : 1 ч. 59 м.
Битрейт : 2832 Кбит/сек
Ширина : 720 пикселей
Высота : 528 пикселей
Соотношение сторон : 4:3
Режим частоты кадров : Постоянный
Частота кадров : 29,970 кадров/сек
Цветовое пространство : YUV
Субдискретизация насыщенности : 4:2:0
Битовая глубина : 8 бит
Тип развёртки : Прогрессивная
Бит/(Пиксели*Кадры) : 0.249
Размер потока : 2,37 Гбайт (94%)
Заголовок : Core Media Video
Дата кодирования : UTC 2015-03-01 22:31:24
Дата пометки : UTC 2015-03-02 02:32:19
Основные цвета : BT.601 NTSC
Характеристики трансфера : BT.709
Коэффициенты матрицы : BT.601
colour_range : Limited

Аудио
Идентификатор : 2
Формат : AAC
Формат/Информация : Advanced Audio Codec
Профиль формата : LC
Идентификатор кодека : 40
Продолжительность : 1 ч. 59 м.
Продолжительность оригинала : 1 ч. 59 м.
Вид битрейта : Постоянный
Битрейт : 128 Кбит/сек
Каналы : 2 канала
Расположение каналов : Front: L R
Частота : 48,0 КГц
Метод сжатия : С потерями
Размер потока : 111 Мбайт (4%)
Размер потока оригинала : 111 Мбайт (4%)
Заголовок : Core Media Audio
Дата кодирования : UTC 2015-03-01 22:31:24
Дата пометки : UTC 2015-03-02 02:32:19
Эта версия фильма была получена путем наложения русской звуковой дорожки из укороченного VHS-рипа (Екатеринбург-Арт) на SatRip полной англоязычной версии (продолжительностью 02:57:00), случайно найденной на просторах Интернета.
Поскольку российская версия VHS сделана путём ускорения воспроизведения оригинала на 4% (25 кадров в секунду против 24-х) и обрезкой "ненужных" сцен, для подгонки русской дорожки к оригиналу пришлось порезать оригинальную англоязычную версию, используя буквально покадровое сравнение.

Огромное спасибо mvv-64 из Санкт-Петербурга, предоставившему VHS-кассету с русскоязычной версией, Andr1976 из Санкт-Петербурга, сделавшему VHS-рип русскоязычной версии фильма, и Zulu2 из Владимира, выполнившему титаническую работу по монтажу SatRip-a и подгонке русской дорожки.



Скачать Часы.апокалипсиса.Pandora's.Clock.(Эрик.Ланёвилль).[1996.боевик.триллер.драма.SATRip].[MVO].torrent без регистрации
Золото ЗОЛОТАЯ РАЗДАЧА! СКАЧАННОЕ НЕ ЗАСЧИТЫВАЕТСЯ! Золото
Дата: Зарегистрирован   [ Тип: внутренний ] Как тут cкачать?
MAGNET ссылка
MAGNET ссылка


Скачать .torrent

13 KB

Статус: проверено DHT
Скачан: торрент - 49 раз, раздача полностью - 6 раз
Размер: 2,51 GB
Оценка:  - (Голосов: 0)
Поблагодарили: 1
Поделиться ссылкой на эту раздачу с друзьями:
В контактеFacebookОдноклассникиTwitterLivejournalМой МирLiveinternet
 

 
Показать сообщения:    


Вы не можете начинать темы
Вы не можете отвечать на сообщения
Вы не можете редактировать свои сообщения
Вы не можете удалять свои сообщения
Вы не можете голосовать в опросах
Вы не можете прикреплять файлы к сообщениям
Вы можете скачивать файлы