Loading...
Error

Скачать На зов скорби / Les revenants (сезон 01) (Фабрис Гобер и др.) [2012, ужасы, фэнтези, драма, WEB-DLRip] [MVO (Первый канал)] торрент без регистрации

 
Статистика раздачи
Размер:  5,48 GB   |    Скачан:  87 раз
Сидов:  1  [  0 KB/s  ]  
 
Автор Сообщение

МихаНЕзатор

[] 

Информация о фильме
Название: На зов скорби
Оригинальное название: Les revenants
Год выхода: 2012
Жанр: ужасы, фэнтези, драма
Режиссер: Фабрис Гобер, Фридерик Гупил, Фридерик Мерму

В ролях: Анн Косиньи, Клотильда Эсме, Фредерик Пьеро, Селин Саллетт, Грегори Гадебуа, Гийом Гуи, Пьер Перрье, Яра Пиларц, Жан-Франсуа Сивадье, Ана Жирардо

О фильме: В горном городке, над которым возвышается гигантская дамба, в один и тот же день люди разного возраста и из разных слоев общества пытаются вернуться к себе домой, полностью дезориентированные. Они еще не знают, что они умерли много лет назад, что они совсем не постарели и что никто их не ждет. Решив снова занять свое место в жизни, место, которого больше не существует, мало помалу они обнаруживают, что они не единственные вернувшиеся и что их возвращение сопровождается другими, все нарастающими странностями.



Страна: Франция
Студия: Canal+ (France), SundanceTV (United States)
Продолжительность: ~ 00:52:00 серия
Перевод: Профессиональный многоголосый закадровый [Первый канал]

Файл
Кодек: DivX / AC3
Качество: WEB-DLRip
Видео: MPEG4, DivX 5, 720x400 (16:9), 25.000 fps, 1 383 Kbps (0.192 bit/pixel)
Звук:
Аудио #1: AC-3, 48.0 KHz, 2 ch, 192 Kbps, CBR [rus]
Аудио #2: AC-3, 48.0 KHz, 2 ch, 192 Kbps, CBR [fre]

АНОНСЫ ПОПУЛЯРНЫХ РАЗДАЧ
General
Complete name : 1x01 - Camille (Камилла).avi
Format : AVI
Format/Info : Audio Video Interleave
File size : 700 MiB
Duration : 54mn 58s
Overall bit rate : 1 781 Kbps
Writing application : VirtualDubMod 1.5.10.2 (build 2540/release)
Writing library : VirtualDubMod build 2540/release
Copyright : miha2154

Video
ID : 0
Format : MPEG-4 Visual
Format profile : Advanced Simple@L5
Format settings, BVOP : 1
Format settings, QPel : No
Format settings, GMC : No warppoints
Format settings, Matrix : Custom
Codec ID : DX50
Codec ID/Hint : DivX 5
Duration : 54mn 58s
Bit rate : 1 383 Kbps
Width : 720 pixels
Height : 400 pixels
Display aspect ratio : 16:9
Frame rate : 25.000 fps
Color space : YUV
Chroma subsampling : 4:2:0
Bit depth : 8 bits
Scan type : Progressive
Compression mode : Lossy
Bits/(Pixel*Frame) : 0.192
Stream size : 544 MiB (78%)
Writing library : XviD 65

Audio #1
ID : 1
Format : AC-3
Format/Info : Audio Coding 3
Mode extension : CM (complete main)
Format settings, Endianness : Big
Codec ID : 2000
Duration : 54mn 58s
Bit rate mode : Constant
Bit rate : 192 Kbps
Channel(s) : 2 channels
Channel positions : Front: L R
Sampling rate : 48.0 KHz
Bit depth : 16 bits
Compression mode : Lossy
Stream size : 75.5 MiB (11%)
Alignment : Split accross interleaves
Interleave, duration : 40 ms (1.00 video frame)
Interleave, preload duration : 500 ms

Audio #2
ID : 2
Format : AC-3
Format/Info : Audio Coding 3
Mode extension : CM (complete main)
Format settings, Endianness : Big
Codec ID : 2000
Duration : 54mn 58s
Bit rate mode : Constant
Bit rate : 192 Kbps
Channel(s) : 2 channels
Channel positions : Front: L R
Sampling rate : 48.0 KHz
Bit depth : 16 bits
Compression mode : Lossy
Stream size : 75.5 MiB (11%)
Alignment : Split accross interleaves
Interleave, duration : 40 ms (1.00 video frame)
Interleave, preload duration : 500 ms



Скачать На.зов.скорби.Les.revenants.(сезон.01).(Фабрис.Гобер.и.др.).[2012.ужасы.фэнтези.драма.WEB-DLRip].[MVO.(Первый.канал)].torrent без регистрации
Золото ЗОЛОТАЯ РАЗДАЧА! СКАЧАННОЕ НЕ ЗАСЧИТЫВАЕТСЯ! Золото
Дата: Зарегистрирован   [ Тип: внутренний ] Как тут cкачать?
MAGNET ссылка
MAGNET ссылка


Скачать .torrent

29 KB

Статус: проверено DHT
Скачан: торрент - 87 раз, раздача полностью - 89 раз
Размер: 5,48 GB
Оценка:  5 (Голосов: 1)
Поблагодарили: 1
Поделиться ссылкой на эту раздачу с друзьями:
В контактеFacebookОдноклассникиTwitterLivejournalМой МирLiveinternet
 

 
Показать сообщения:    


Вы не можете начинать темы
Вы не можете отвечать на сообщения
Вы не можете редактировать свои сообщения
Вы не можете удалять свои сообщения
Вы не можете голосовать в опросах
Вы не можете прикреплять файлы к сообщениям
Вы можете скачивать файлы