Loading...
Error

Скачать Безумная семейка / Mum & Dad (Стивен Шейл) [2008 г., ужасы, триллер, BDRip-AVC] [AVO (RussianGuy27)] торрент без регистрации

 
Статистика раздачи
Размер:  1,45 GB   |    Скачан:  61 раз
Сидов:  1  [  0 KB/s  ]  
 
Автор Сообщение

durik

[] 

Безумная семейка / Mum & Dad

Информация о фильме
Название: Безумная семейка
Оригинальное название: Mum & Dad
Год выхода: 2008
Жанр: ужасы, триллер
Режиссер: Стивен Шейл
В ролях: Перри Бенсон, Дайдо Майлз, Ольга Федори, Эйнсли Ховард, Тоби Александр, Михей Дринг, Марк Девенпорт, Крис Робак, Клер Дайер, Пенни Эндрюс

О фильме:
История странной семейки, состоящей из взрослых родителей и приемных детей, которые по соседству с людным местом (аэропорт) устроили настоящий Ад, соорудив из своего дома пыточную преисподнюю, в которую они время от времени заманивают зазевавшихся прохожих, которых обирают и убивают. Одной из жертв «веселой» семейки становится девушка Лина. Мама и Папа дают своей узнице новое имя — «Подружка Мумии» и хотят принять ее в свою семью. У бедной девушки не остается выбора, она соглашается, ведь иначе ее ждет мучительная смерть!..



Страна: Великобритания
Студия: 2am Films, EM Media, Film London
Продолжительность: 01:24:15
Перевод: Авторский (одноголосый закадровый) [RussianGuy27]

Присутствует ненормативная лексика

Файл
Кодек: AVC
Качество: BDRip
Видео: 1024x576, 2279 kbps, 25 fps, 0,155 Bits/(Pixel*Frame)
Звук: AC3, 48 kHz, 2 ch, 192 kbps - RUS
Субтитры: английские
General
Unique ID : 223845952034788440109444468863898498462 (0xA8672985A2B3F41CBBA92A42F6F8359E)
Complete name : E:Mum.and.Dad.20008.BDRip-AVC_by_Bathory.mkv
Format : Matroska
Format version : Version 4 / Version 2
File size : 1.45 GiB
Duration : 1h 24mn
Overall bit rate : 2 471 Kbps
Encoded date : UTC 2015-11-11 14:40:09
Writing application : mkvmerge v8.5.2 ('Crosses') 64bit
Writing library : libebml v1.3.3 + libmatroska v1.4.4
DURATION : 01:23:24.575000000
NUMBER_OF_FRAMES : 883
NUMBER_OF_BYTES : 28003
_STATISTICS_WRITING_APP : mkvmerge v8.5.2 ('Crosses') 64bit
_STATISTICS_WRITING_DATE_UTC : 2015-11-11 14:40:09
_STATISTICS_TAGS : BPS DURATION NUMBER_OF_FRAMES NUMBER_OF_BYTES

Video
ID : 1
Format : AVC
Format/Info : Advanced Video Codec
Format profile : High@L4.1
Format settings, CABAC : Yes
Format settings, ReFrames : 12 frames
Codec ID : V_MPEG4/ISO/AVC
Duration : 1h 24mn
Bit rate : 2 279 Kbps
Width : 1 024 pixels
Height : 576 pixels
Display aspect ratio : 16:9
Frame rate mode : Constant
Frame rate : 25.000 fps
Color space : YUV
Chroma subsampling : 4:2:0
Bit depth : 8 bits
Scan type : Progressive
Bits/(Pixel*Frame) : 0.155
Stream size : 1.31 GiB (90%)
Writing library : x264 core 130 r2273 b3065e6
Encoding settings : cabac=1 / ref=12 / deblock=1:-2:-1 / analyse=0x3:0x133 / me=umh / subme=11 / psy=1 / psy_rd=1.00:0.10 / mixed_ref=1 / me_range=32 / chroma_me=1 / trellis=2 / 8x8dct=1 / cqm=0 / deadzone=21,11 / fast_pskip=0 / chroma_qp_offset=-3 / threads=12 / lookahead_threads=3 / sliced_threads=0 / nr=0 / decimate=1 / interlaced=0 / bluray_compat=0 / constrained_intra=0 / bframes=16 / b_pyramid=2 / b_adapt=2 / b_bias=0 / direct=3 / weightb=1 / open_gop=0 / weightp=2 / keyint=250 / keyint_min=25 / scenecut=40 / intra_refresh=0 / rc_lookahead=60 / rc=2pass / mbtree=1 / bitrate=2279 / ratetol=1.0 / qcomp=0.60 / qpmin=0 / qpmax=69 / qpstep=4 / cplxblur=20.0 / qblur=0.5 / ip_ratio=1.40 / aq=1:1.00
Default : Yes
Forced : No

Audio
ID : 2
Format : AC-3
Format/Info : Audio Coding 3
Mode extension : CM (complete main)
Format settings, Endianness : Big
Codec ID : A_AC3
Duration : 1h 24mn
Bit rate mode : Constant
Bit rate : 192 Kbps
Channel(s) : 2 channels
Channel positions : Front: L R
Sampling rate : 48.0 KHz
Bit depth : 16 bits
Compression mode : Lossy
Stream size : 116 MiB (8%)
Default : Yes
Forced : No

Text
ID : 3
Format : UTF-8
Codec ID : S_TEXT/UTF8
Codec ID/Info : UTF-8 Plain Text
Language : English
Default : No
Forced : No

Menu
00:00:00.000 : en:Chapter 01
00:06:13.440 : en:Chapter 02
00:13:15.920 : en:Chapter 03
00:20:51.840 : en:Chapter 04
00:27:21.760 : en:Chapter 05
00:30:30.640 : en:Chapter 06
00:42:23.800 : en:Chapter 07
00:48:09.520 : en:Chapter 08
00:55:34.760 : en:Chapter 09
01:02:52.920 : en:Chapter 10
01:10:43.920 : en:Chapter 11
01:19:55.400 : en:Chapter 12
Релиз от:

Автор рипа: Bathory



Скачать Безумная.семейка.Mum.&.Dad.(Стивен.Шейл).[2008.г.ужасы.триллер.BDRip-AVC].[AVO.(RussianGuy27)].torrent без регистрации
Золото ЗОЛОТАЯ РАЗДАЧА! СКАЧАННОЕ НЕ ЗАСЧИТЫВАЕТСЯ! Золото
Дата: Зарегистрирован   [ Тип: внутренний ] Как тут cкачать?
MAGNET ссылка
MAGNET ссылка


Скачать .torrent

15 KB

Статус: проверено DHT
Скачан: торрент - 61 раз, раздача полностью - 9 раз
Размер: 1,45 GB
Оценка:  - (Голосов: 0)
Поблагодарили: 2
Поделиться ссылкой на эту раздачу с друзьями:
В контактеFacebookОдноклассникиTwitterLivejournalМой МирLiveinternet
 

 
Показать сообщения:    


Вы не можете начинать темы
Вы не можете отвечать на сообщения
Вы не можете редактировать свои сообщения
Вы не можете удалять свои сообщения
Вы не можете голосовать в опросах
Вы не можете прикреплять файлы к сообщениям
Вы можете скачивать файлы