Loading...
Error

Скачать Эйр Америка / Air America (Роджер Споттисвуд) [1990, боевик, комедия, BDRip-AVC] [MVO]x2+[AVO]x4+[Оригинал]+[Sub]x2 торрент без регистрации

 
Статистика раздачи
Размер:  3,61 GB   |    Скачан:  43 раза
Сидов:  1  [  0 KB/s  ]  
 
Автор Сообщение

Marsianka

[] 

Название: Эйр Америка
Оригинальное название: Air America
Год выпуска: 1990
Страна: США
Жанр: боевик, комедия
Продолжительность: 01:52:36
Перевод: профессиональный многоголосый, авторский

Режиссёр: Роджер Споттисвуд

В ролях: Мэл Гибсон, Роберт Дауни мл., Нэнси Трэвис, Кен Дженкинс, Дэвид Маршалл Грант, Лэйн Смит, Арт ЛаФлер, Нед Айзенберг, Маршалл Белл, Дэвид Бауи, Берт Куок, Тим Томерсон, Харви Джейсон, Эрни Лайвли, Берк Байрнс, Грег Кин, Майкл Дудикофф, Синяи Пленжпанит, Яни Трэмод, Васун Уттамаедин, Джон Ладальски

Описание: Кто сказал, что Вьетнам это страшно? Может быть для кого-то, но не для них! Контрабанда, ЦРУ, приключения — что может быть лучше для двух бесшабашных пилотов! Они готовы доставить что угодно, кого угодно. Им всё
нипочем, лишь бы платили...



Качество: BDRip AVC Сравнение с исходником
Формат: MKV
Видео: MPEG-4 AVC, 1897 Кбит/с, 1024x438, 23,976 кадра/с
Аудио 1: русский, AC3, 448 kbps, 6 ch, 48 kHz [профессиональный многоголосый, Амальгама]
Аудио 2: русский, AC3, 448 kbps, 6 ch, 48 kHz [авторский, Сергей Визгунов]
Аудио 3: русский, AC3, 448 kbps, 6 ch, 48 kHz [авторский, Григорий Либергал]

Внешние файлы
Аудио: русский, AC3, 192 kbps, 2 ch, 48 kHz [профессиональный многоголосый, ОРТ]
Аудио: русский, AC3, 448 kbps, 6 ch, 48 kHz [авторский, Алексей Матвеев (Доктор Джокер)]
Аудио: русский, AC3, 192 kbps, 2 ch, 48 kHz [авторский, Василий Горчаков]
Аудио: английский, AC3, 448 kbps, 6 ch, 48 kHz [оригинал]
Субтитры: русские
Субтитры: английские
Общее
Полное имя : D:VideoЭйр Америка.1990.BDRip.AVCЭйр Америка.1990.AVO.rus.В.Горчаков.ac3
Формат : AC-3
Формат/Информация : Audio Coding 3
Размер файла : 155 Мбайт
Продолжительность : 1 ч. 52 м.
Режим общего битрейта : Постоянный
Общий поток : 192 Кбит/сек

Аудио
Формат : AC-3
Формат/Информация : Audio Coding 3
Расширение режима : CM (complete main)
Параметр Endianness формата : Big
Продолжительность : 1 ч. 52 м.
Вид битрейта : Постоянный
Битрейт : 192 Кбит/сек
Каналы : 2 канала
Расположение каналов : Front: L R
Частота : 48,0 КГц
Метод сжатия : С потерями
Размер потока : 155 Мбайт (100%)

Общее
Полное имя : D:VideoЭйр Америка.1990.BDRip.AVCЭйр Америка.1990.AVO.rus.Д-р Джокер.ac3
Формат : AC-3
Формат/Информация : Audio Coding 3
Размер файла : 361 Мбайт
Продолжительность : 1 ч. 52 м.
Режим общего битрейта : Постоянный
Общий поток : 448 Кбит/сек

Аудио
Формат : AC-3
Формат/Информация : Audio Coding 3
Расширение режима : CM (complete main)
Параметр Endianness формата : Big
Продолжительность : 1 ч. 52 м.
Вид битрейта : Постоянный
Битрейт : 448 Кбит/сек
Каналы : 6 каналов
Расположение каналов : Front: L C R, Side: L R, LFE
Частота : 48,0 КГц
Метод сжатия : С потерями
Размер потока : 361 Мбайт (100%)

Общее
Уникальный идентификатор : 186469411460591491289772742781074559155 (0x8C48B3CB8886A0F29930B8D75C7650B3)
Полное имя : D:VideoЭйр Америка.1990.BDRip.AVCЭйр Америка.1990.BDRip.AVC.mkv
Формат : Matroska
Версия формата : Version 4 / Version 2
Размер файла : 2,60 Гбайт
Продолжительность : 1 ч. 52 м.
Общий поток : 3307 Кбит/сек
Название фильма : BDRip -- STarankov
Дата кодирования : UTC 2015-11-11 08:39:33
Программа кодирования : mkvmerge v8.2.0 ('World of Adventure') 64bit
Библиотека кодирования : libebml v1.3.1 + libmatroska v1.4.2
DURATION : 01:52:36.640000000
NUMBER_OF_FRAMES : 211145
NUMBER_OF_BYTES : 378371840
_STATISTICS_WRITING_APP : mkvmerge v8.2.0 ('World of Adventure') 64bit
_STATISTICS_WRITING_DATE_UTC : 2015-11-11 08:39:33
_STATISTICS_TAGS : BPS DURATION NUMBER_OF_FRAMES NUMBER_OF_BYTES

Видео
Идентификатор : 1
Формат : AVC
Формат/Информация : Advanced Video Codec
Профиль формата : High@L4.1
Параметр CABAC формата : Да
Параметр ReFrames формата : 9 кадров
Идентификатор кодека : V_MPEG4/ISO/AVC
Продолжительность : 1 ч. 52 м.
Битрейт : 1897 Кбит/сек
Ширина : 1024 пикселя
Высота : 438 пикселей
Соотношение сторон : 2,35:1
Режим частоты кадров : Постоянный
Частота кадров : 23,976 кадра/сек
Цветовое пространство : YUV
Субдискретизация насыщенности : 4:2:0
Битовая глубина : 8 бит
Тип развёртки : Прогрессивная
Бит/(Пиксели*Кадры) : 0.176
Размер потока : 1,49 Гбайт (57%)
Библиотека кодирования : x264 core 146 r2538 121396c
Настройки программы : cabac=1 / ref=9 / deblock=1:-3:-3 / analyse=0x3:0x113 / me=umh / subme=10 / psy=1 / psy_rd=1.00:0.15 / mixed_ref=1 / me_range=32 / chroma_me=1 / trellis=2 / 8x8dct=1 / cqm=0 / deadzone=21,11 / fast_pskip=1 / chroma_qp_offset=-3 / threads=6 / lookahead_threads=1 / sliced_threads=0 / nr=0 / decimate=1 / interlaced=0 / bluray_compat=0 / constrained_intra=0 / bframes=10 / b_pyramid=2 / b_adapt=2 / b_bias=0 / direct=1 / weightb=1 / open_gop=0 / weightp=2 / keyint=230 / keyint_min=23 / scenecut=40 / intra_refresh=0 / rc_lookahead=40 / rc=crf / mbtree=0 / crf=19.8 / qcomp=0.60 / qpmin=0 / qpmax=69 / qpstep=4 / vbv_maxrate=40000 / vbv_bufsize=50000 / crf_max=0.0 / nal_hrd=none / filler=0 / ip_ratio=1.40 / pb_ratio=1.30 / aq=1:1.00
Язык : English
Default : Да
Forced : Нет
DURATION : 01:52:36.583000000
NUMBER_OF_FRAMES : 161996
NUMBER_OF_BYTES : 1655886268
_STATISTICS_WRITING_APP : mkvmerge v8.2.0 ('World of Adventure') 64bit
_STATISTICS_WRITING_DATE_UTC : 2015-11-11 08:39:33
_STATISTICS_TAGS : BPS DURATION NUMBER_OF_FRAMES NUMBER_OF_BYTES

Аудио #1
Идентификатор : 2
Формат : AC-3
Формат/Информация : Audio Coding 3
Расширение режима : CM (complete main)
Параметр Endianness формата : Big
Идентификатор кодека : A_AC3
Продолжительность : 1 ч. 52 м.
Вид битрейта : Постоянный
Битрейт : 448 Кбит/сек
Каналы : 6 каналов
Расположение каналов : Front: L C R, Side: L R, LFE
Частота : 48,0 КГц
Метод сжатия : С потерями
Размер потока : 361 Мбайт (14%)
Заголовок : MVO (Амальгама)
Язык : Russian
Default : Да
Forced : Нет

Аудио #2
Идентификатор : 3
Формат : AC-3
Формат/Информация : Audio Coding 3
Расширение режима : CM (complete main)
Параметр Endianness формата : Big
Идентификатор кодека : A_AC3
Продолжительность : 1 ч. 52 м.
Вид битрейта : Постоянный
Битрейт : 448 Кбит/сек
Каналы : 6 каналов
Расположение каналов : Front: L C R, Side: L R, LFE
Частота : 48,0 КГц
Метод сжатия : С потерями
Размер потока : 361 Мбайт (14%)
Заголовок : AVO (Сергей Визгунов)
Язык : Russian
Default : Нет
Forced : Нет

Аудио #3
Идентификатор : 4
Формат : AC-3
Формат/Информация : Audio Coding 3
Расширение режима : CM (complete main)
Параметр Endianness формата : Big
Идентификатор кодека : A_AC3
Продолжительность : 1 ч. 52 м.
Вид битрейта : Постоянный
Битрейт : 448 Кбит/сек
Каналы : 6 каналов
Расположение каналов : Front: L C R, Side: L R, LFE
Частота : 48,0 КГц
Метод сжатия : С потерями
Размер потока : 361 Мбайт (14%)
Заголовок : AVO (Григорий Либергал)
Язык : Russian
Default : Нет
Forced : Нет

Общее
Полное имя : D:VideoЭйр Америка.1990.BDRip.AVCЭйр Америка.1990.eng.srt
Формат : SubRip
Размер файла : 71,8 Кбайт

Текст
Формат : SubRip
Метод сжатия : Без потерь

Общее
Полное имя : D:VideoЭйр Америка.1990.BDRip.AVCЭйр Америка.1990.MVO.rus.OPT.ac3
Формат : AC-3
Формат/Информация : Audio Coding 3
Размер файла : 155 Мбайт
Продолжительность : 1 ч. 52 м.
Режим общего битрейта : Постоянный
Общий поток : 192 Кбит/сек

Аудио
Формат : AC-3
Формат/Информация : Audio Coding 3
Расширение режима : CM (complete main)
Параметр Endianness формата : Big
Продолжительность : 1 ч. 52 м.
Вид битрейта : Постоянный
Битрейт : 192 Кбит/сек
Каналы : 2 канала
Расположение каналов : Front: L R
Частота : 48,0 КГц
Метод сжатия : С потерями
Размер потока : 155 Мбайт (100%)

Общее
Полное имя : D:VideoЭйр Америка.1990.BDRip.AVCЭйр Америка.1990.Original.eng.ac3
Формат : AC-3
Формат/Информация : Audio Coding 3
Размер файла : 361 Мбайт
Продолжительность : 1 ч. 52 м.
Режим общего битрейта : Постоянный
Общий поток : 448 Кбит/сек

Аудио
Формат : AC-3
Формат/Информация : Audio Coding 3
Расширение режима : CM (complete main)
Параметр Endianness формата : Big
Продолжительность : 1 ч. 52 м.
Вид битрейта : Постоянный
Битрейт : 448 Кбит/сек
Каналы : 6 каналов
Расположение каналов : Front: L C R, Side: L R, LFE
Частота : 48,0 КГц
Метод сжатия : С потерями
Размер потока : 361 Мбайт (100%)

Общее
Полное имя : D:VideoЭйр Америка.1990.BDRip.AVCЭйр Америка.1990.rus.srt
Формат : SubRip
Размер файла : 110 Кбайт

Текст
Формат : SubRip
Метод сжатия : Без потерь



Скачать Эйр.Америка.Air.America.(Роджер.Споттисвуд).[1990.боевик.комедия.BDRip-AVC].[MVO]x2+[AVO]x4+[Оригинал]+[Sub]x2.torrent без регистрации
Золото ЗОЛОТАЯ РАЗДАЧА! СКАЧАННОЕ НЕ ЗАСЧИТЫВАЕТСЯ! Золото
Дата: Зарегистрирован   [ Тип: внутренний ] Как тут cкачать?
MAGNET ссылка
MAGNET ссылка


Скачать .torrent

19 KB

Статус: проверено DHT
Скачан: торрент - 43 раз, раздача полностью - 6 раз
Размер: 3,61 GB
Оценка:  - (Голосов: 0)
Поблагодарили: 0
Поделиться ссылкой на эту раздачу с друзьями:
В контактеFacebookОдноклассникиTwitterLivejournalМой МирLiveinternet
 

 
Показать сообщения:    


Вы не можете начинать темы
Вы не можете отвечать на сообщения
Вы не можете редактировать свои сообщения
Вы не можете удалять свои сообщения
Вы не можете голосовать в опросах
Вы не можете прикреплять файлы к сообщениям
Вы можете скачивать файлы