Loading...
Error

Скачать Безалаберные / Disorderlies (Майкл Шульц) [1987, комедия, DVDRip] [MVO] торрент без регистрации

 
Статистика раздачи
Размер:  1,33 GB   |    Скачан:  62 раза
Сидов:  1  [  0 KB/s  ]  
 
Автор Сообщение

Marsianka

[] 

Информация о фильме
Название: Безалаберные / Санитары-хулиганы
Оригинальное название: Disorderlies
Год выхода: 1987
Жанр: комедия
Режиссер: Майкл Шульц
В ролях: Марк Моралес, Даррен Робинсон, Damon Wimbley, Энтони Джиари, Тони Плана, Хелен Редди, Лиза Кингстон, Марко Родригес, Ральф Беллами, Джим Джекман

Описание: Уинслоу, племянник своего престарелого дяди Альберта, из-за постоянных проблем с деньгами хочет побыстрее овладеть состоянием родственника. Последний, однако, окружённый уходом со стороны отличных санитаров, и не думает умирать. Тогда Уинслоу решает для достижения своих целей нанять самых худших санитаров в округе и поручить им уход и присмотр за своим дядей.



Страна: США
Продолжительность: 01:26:33
Перевод: Профессиональный (многоголосый закадровый) - ВГТРК "Россия"

Файл
Формат: AVI
Качество: DVDRip
Видео: 720x400, (16:9), XviD, 1995 Кбит/сек, 23,976 кадра/сек
Аудио: AC3, 192 Кбит/сек, 2 канала, 48,0 КГц
Общее
Полное имя : E:Санитары-хулиганы.avi
Формат : AVI
Формат/Информация : Audio Video Interleave
Размер файла : 1,33 Гбайт
Продолжительность : 1 ч. 26 м.
Общий поток : 2197 Кбит/сек
Название фильма : Безалаберные / Санитары-хулиганы / Disorderlies (1987)
Программа кодирования : VirtualDubMod 1.5.10.2 (build 2540/release)
Библиотека кодирования : VirtualDubMod build 2540/release

Видео
Идентификатор : 0
Формат : MPEG-4 Visual
Профиль формата : Advanced Simple@L5
Параметр BVOP формата : 2
Параметр QPel формата : Нет
Параметр GMC формата : Без точки перехода
Параметр матрицы формата : Default (H.263)
Режим смешивания : Сжатый битовый поток
Идентификатор кодека : XVID
Идентификатор кодека/Подсказка : XviD
Продолжительность : 1 ч. 26 м.
Битрейт : 1995 Кбит/сек
Ширина : 720 пикселей
Высота : 400 пикселей
Соотношение сторон : 16:9
Частота кадров : 23,976 кадра/сек
Цветовое пространство : YUV
Субдискретизация насыщенности : 4:2:0
Битовая глубина : 8 бит
Тип развёртки : Прогрессивная
Метод сжатия : С потерями
Бит/(Пиксели*Кадры) : 0.289
Размер потока : 1,21 Гбайт (91%)
Библиотека кодирования : XviD 1.1.2 (UTC 2006-11-01)

Аудио
Идентификатор : 1
Формат : AC-3
Формат/Информация : Audio Coding 3
Расширение режима : CM (complete main)
Параметр Endianness формата : Big
Идентификатор кодека : 2000
Продолжительность : 1 ч. 26 м.
Вид битрейта : Постоянный
Битрейт : 192 Кбит/сек
Каналы : 2 канала
Расположение каналов : Front: L R
Частота : 48,0 КГц
Метод сжатия : С потерями
Задержка видео : 300 мс.
Размер потока : 119 Мбайт (9%)
Выравнивание : Разделение по промежуткам
Продолжительность промежутка : 42 мс. (1,00 видеокадр)
Время предзагрузки промежутка : 500 мс.
Заголовок : Профессиональный (многоголосый, закадровый) Россия



Скачать Безалаберные.Disorderlies.(Майкл.Шульц).[1987.комедия.DVDRip].[MVO].torrent без регистрации
Золото ЗОЛОТАЯ РАЗДАЧА! СКАЧАННОЕ НЕ ЗАСЧИТЫВАЕТСЯ! Золото
Дата: Зарегистрирован   [ Тип: внутренний ] Как тут cкачать?
MAGNET ссылка
MAGNET ссылка


Скачать .torrent

14 KB

Статус: проверено DHT
Скачан: торрент - 62 раз, раздача полностью - 6 раз
Размер: 1,33 GB
Оценка:  - (Голосов: 0)
Поблагодарили: 2
Поделиться ссылкой на эту раздачу с друзьями:
В контактеFacebookОдноклассникиTwitterLivejournalМой МирLiveinternet
 

 
Показать сообщения:    


Вы не можете начинать темы
Вы не можете отвечать на сообщения
Вы не можете редактировать свои сообщения
Вы не можете удалять свои сообщения
Вы не можете голосовать в опросах
Вы не можете прикреплять файлы к сообщениям
Вы можете скачивать файлы