Loading...
Error

Скачать Повелитель зверей / BeastMaster (сезон 03) (Майкл Оффер и др.) [2001, фэнтези, боевик, приключения, DVDRip] [MVO]+[Eng] торрент без регистрации

 
Статистика раздачи
Размер:  8,39 GB   |    Скачан:  70 раз
Сидов:  1  [  0 KB/s  ]  
 
Автор Сообщение

МихаНЕзатор

[] 

Информация о фильме
Название: Повелитель зверей
Оригинальное название: BeastMaster
Год выхода: 2001
Жанр: фэнтези, боевик, приключения
Режиссер: Майкл Оффер, Пино Амента, Карл Цвики

В ролях: Джексон Рэйне, Дэниэл Годдар, Стивен Грайвз, Моника Шнарре, Грэхам Бонд, Марджин Холден, Натали Джексон Мендоса, Эмили де Рэвин, Дэвид Патерсон, Дилан Бирк

Описание: В те времена, когда миром правил закон магии и дикой природы, родилась дивная легенда про воина, который понимал язык зверей, боролся с колдунами и темными силами. Его звали Дар — последний из племени. А еще его величали — Повелитель Зверей.



Страна: Австралия, Канада, США
Продолжительность: 22x ~ 45 мин
Перевод: Профессиональный (многоголосый, закадровый) + Оригинал (английский)

Файл
Формат: AVI
Качество: DVDRip
Видео: 608x336, (16:9), XviD, ~1000 Кбит/сек, 29,970 кадров/сек
Аудио №1: MP3, 128 Кбит/сек, 2 канала, 48,0 КГц - Русский
Аудио №2: MP3, 115 Кбит/сек, 2 канала, 48,0 КГц - Оригинал (английский)

АНОНСЫ ПОПУЛЯРНЫХ РАЗДАЧ
Общее
Полное имя : E:Beastmaster.S03.DVDrip.Rus-EngBeastmaster.S03E01.The.Legend.Reborn.WS.DVDrip.Rus-Eng.avi
Формат : AVI
Формат/Информация : Audio Video Interleave
Размер файла : 390 Мбайт
Продолжительность : 42 м.
Режим общего битрейта : Переменный
Общий поток : 1272 Кбит/сек
Программа кодирования : VirtualDubModRus 1.5.10.2 (build 2540/release)
Библиотека кодирования : VirtualDubMod build 2540/release

Видео
Идентификатор : 0
Формат : MPEG-4 Visual
Профиль формата : Advanced Simple@L5
Параметр BVOP формата : 1
Параметр QPel формата : Нет
Параметр GMC формата : Без точки перехода
Параметр матрицы формата : Default (H.263)
Режим смешивания : Сжатый битовый поток
Идентификатор кодека : XVID
Идентификатор кодека/Подсказка : XviD
Продолжительность : 42 м.
Битрейт : 1008 Кбит/сек
Ширина : 608 пикселей
Высота : 336 пикселей
Соотношение сторон : 16:9
Частота кадров : 29,970 кадров/сек
Цветовое пространство : YUV
Субдискретизация насыщенности : 4:2:0
Битовая глубина : 8 бит
Тип развёртки : Прогрессивная
Метод сжатия : С потерями
Бит/(Пиксели*Кадры) : 0.165
Размер потока : 310 Мбайт (79%)
Библиотека кодирования : XviD 1.1.0 (UTC 2005-11-22)

Аудио #1
Идентификатор : 1
Формат : MPEG Audio
Версия формата : Version 1
Профиль формата : Layer 3
Режим : Joint stereo
Расширение режима : MS Stereo
Идентификатор кодека : 55
Идентификатор кодека/Подсказка : MP3
Продолжительность : 42 м.
Вид битрейта : Постоянный
Битрейт : 128 Кбит/сек
Каналы : 2 канала
Частота : 48,0 КГц
Метод сжатия : С потерями
Размер потока : 39,3 Мбайт (10%)
Выравнивание : Соединение по промежуткам
Продолжительность промежутка : 33 мс. (1,00 видеокадр)
Время предзагрузки промежутка : 504 мс.

Аудио #2
Идентификатор : 2
Формат : MPEG Audio
Версия формата : Version 1
Профиль формата : Layer 3
Режим : Joint stereo
Идентификатор кодека : 55
Идентификатор кодека/Подсказка : MP3
Продолжительность : 42 м.
Вид битрейта : Переменный
Битрейт : 115 Кбит/сек
Минимальный битрейт : 32,0 Кбит/сек
Каналы : 2 канала
Частота : 48,0 КГц
Метод сжатия : С потерями
Размер потока : 35,4 Мбайт (9%)
Выравнивание : Соединение по промежуткам
Продолжительность промежутка : 24 мс. (0,72 видеокадр)
Время предзагрузки промежутка : 252 мс.
Библиотека кодирования : LAME3.97b
Настройки программы : -m j -V 5 -q 3 -lowpass 16 --vbr-new -b 32



Скачать Повелитель.зверей.BeastMaster.(сезон.03).(Майкл.Оффер.и.др.).[2001.фэнтези.боевик.приключения.DVDRip].[MVO]+[Eng].torrent без регистрации
Золото ЗОЛОТАЯ РАЗДАЧА! СКАЧАННОЕ НЕ ЗАСЧИТЫВАЕТСЯ! Золото
Дата: Зарегистрирован   [ Тип: внутренний ] Как тут cкачать?
MAGNET ссылка
MAGNET ссылка


Скачать .torrent

44 KB

Статус: проверено DHT
Скачан: торрент - 70 раз, раздача полностью - 45 раз
Размер: 8,39 GB
Оценка:  - (Голосов: 0)
Поблагодарили: 0
Поделиться ссылкой на эту раздачу с друзьями:
В контактеFacebookОдноклассникиTwitterLivejournalМой МирLiveinternet
 

 
Показать сообщения:    


Вы не можете начинать темы
Вы не можете отвечать на сообщения
Вы не можете редактировать свои сообщения
Вы не можете удалять свои сообщения
Вы не можете голосовать в опросах
Вы не можете прикреплять файлы к сообщениям
Вы можете скачивать файлы