Loading...
Error

Скачать Легенда о динозавре / Kyôryû kaichô no densetsu (Дзюндзи Курата) [1977, фантастика, DVDRip-AVC] [Dub]+[DVO]+[Оригинал]+[Sub] торрент без регистрации

 
Статистика раздачи
Размер:  1,45 GB   |    Скачан:  51 раз
Сидов:  1  [  0 KB/s  ]  
 
Автор Сообщение

Marsianka

[] 

Страна: Япония
Жанр: фантастика
Год выпуска: 1977
Продолжительность: 01:32:27
Перевод: Профессиональный (полное дублирование), Профессиональный (двухголосый, закадровый), Оригинальный
Субтитры: русские.
Режиссер: Дзюндзи Курата / Junji Kurata
В ролях:

Цунэхико Ватасэ (Ashizawa), Нобико Сава (Akiko), Сётаро Хаяси, Томоко Киёсима, Фуюкити Маки, Дэвид Фридман (Harold Tucker), Морин Пикок, Кэтрин Лауб, Хироси Нава, Гиндзи Накамура, Масатака Ивао, Горо Оки
Дублёры: Анатолий Кузнецов, Вадим Спиридонов, Надежда Румянцева
Описание: Лето 1977 года. В расщелине у подножия горы Фудзияма найдены окаменевшие яйца динозавров. Миллионы лет пролежали они без движения, но природные катаклизмы пробудили их от спячки. И началось... Исчезают люди, на дорогах находят обезглавленных животных. Начинают оживать все новые и новые твари. Кто или что сможет остановить кровавую вакханалию?

Качество: DVDRip
Контейнер: MKV

Видео: AVC, 720x372 @ 852x372 (2.25:1), 1664 kbps, 23,976 fps, 0,259 bpp
Аудио №1: русский / AC3 / 2.0 / 48 kHz / 192 kbps
Аудио №2: русский / AC3 / 2.0 / 48 kHz / 192 kbps
Аудио №3: японский / AC3 / 2.0 / 48 kHz / 192 kbps
Навигация по главам: есть



Format : Matroska
Format version : Version 2
File size : 1.45 GiB
Duration : 1h 32mn
Overall bit rate : 2 243 Kbps
Movie name : = Легенда о динозавре / Kyoryu kaicho no densetsu DVDRip-AVC by SC Kosmos =
Encoded date : UTC 2015-11-09 16:47:43
Writing application : mkvmerge v3.3.0 ('Language') gebaut am Mar 24 2010 14:59:24
Writing library : libebml v0.8.0 + libmatroska v0.9.0
Attachment : Yes

Video
ID : 1
Format : AVC
Format/Info : Advanced Video Codec
Format profile : High@L4.1
Format settings, CABAC : Yes
Format settings, ReFrames : 10 frames
Codec ID : V_MPEG4/ISO/AVC
Duration : 1h 32mn
Bit rate : 1 664 Kbps
Width : 720 pixels
Height : 372 pixels
Display aspect ratio : 2.25:1
Original display aspect ratio : 2.25:1
Frame rate : 23.976 fps
Color space : YUV
Chroma subsampling : 4:2:0
Bit depth : 8 bits
Scan type : Progressive
Bits/(Pixel*Frame) : 0.259
Stream size : 1.05 GiB (72%)
Title : Легенда о динозавре / Kyoryu kaicho no densetsu DVDRip-AVC by SC Kosmos
Writing library : x264 core 146 r2538 121396c
Encoding settings : cabac=1 / ref=10 / deblock=1:-1:-1 / analyse=0x3:0x113 / me=umh / subme=11 / psy=1 / psy_rd=0.40:0.05 / mixed_ref=1 / me_range=32 / chroma_me=1 / trellis=2 / 8x8dct=1 / cqm=0 / deadzone=21,11 / fast_pskip=0 / chroma_qp_offset=-3 / threads=12 / lookahead_threads=2 / sliced_threads=0 / nr=0 / decimate=1 / interlaced=0 / bluray_compat=0 / constrained_intra=0 / bframes=8 / b_pyramid=2 / b_adapt=2 / b_bias=0 / direct=3 / weightb=1 / open_gop=0 / weightp=2 / keyint=240 / keyint_min=23 / scenecut=40 / intra_refresh=0 / rc_lookahead=50 / rc=2pass / mbtree=0 / bitrate=1664 / ratetol=1.0 / qcomp=0.60 / qpmin=0 / qpmax=69 / qpstep=4 / cplxblur=20.0 / qblur=0.5 / vbv_maxrate=62500 / vbv_bufsize=78125 / nal_hrd=none / filler=0 / ip_ratio=1.40 / pb_ratio=1.30 / aq=1:0.60
Language : Japanese
Default : No
Forced : No

Audio #1
ID : 2
Format : AC-3
Format/Info : Audio Coding 3
Mode extension : CM (complete main)
Codec ID : A_AC3
Duration : 1h 32mn
Bit rate mode : Constant
Bit rate : 192 Kbps
Channel(s) : 2 channels
Channel positions : Front: L R
Sampling rate : 48.0 KHz
Bit depth : 16 bits
Compression mode : Lossy
Stream size : 127 MiB (9%)
Title : Дубляж
Language : Russian
Default : Yes
Forced : No

Audio #2
ID : 3
Format : AC-3
Format/Info : Audio Coding 3
Mode extension : CM (complete main)
Codec ID : A_AC3
Duration : 1h 32mn
Bit rate mode : Constant
Bit rate : 192 Kbps
Channel(s) : 2 channels
Channel positions : Front: L R
Sampling rate : 48.0 KHz
Bit depth : 16 bits
Compression mode : Lossy
Stream size : 127 MiB (9%)
Title : DVO
Language : Russian
Default : No
Forced : No

Audio #3
ID : 4
Format : AC-3
Format/Info : Audio Coding 3
Mode extension : CM (complete main)
Codec ID : A_AC3
Duration : 1h 32mn
Bit rate mode : Constant
Bit rate : 192 Kbps
Channel(s) : 2 channels
Channel positions : Front: L R
Sampling rate : 48.0 KHz
Bit depth : 16 bits
Compression mode : Lossy
Stream size : 127 MiB (9%)
Language : Japanese
Default : No
Forced : No

Text
ID : 5
Format : UTF-8
Codec ID : S_TEXT/UTF8
Codec ID/Info : UTF-8 Plain Text
Language : Russian
Default : Yes
Forced : No

Menu
00:00:00.000 : en:Chapter 01
00:03:18.234 : en:Chapter 02
00:05:59.901 : en:Chapter 03
00:07:38.668 : en:Chapter 04
00:10:38.402 : en:Chapter 05
00:15:00.969 : en:Chapter 06
00:20:17.803 : en:Chapter 07
00:29:12.303 : en:Chapter 08
00:37:37.436 : en:Chapter 09
00:43:52.670 : en:Chapter 10
00:50:02.204 : en:Chapter 11
00:58:27.571 : en:Chapter 12
01:05:00.272 : en:Chapter 13
01:12:11.839 : en:Chapter 14
01:17:11.039 : en:Chapter 15
01:24:50.539 : en:Chapter 16




Скачать Легенда.о.динозавре.Kyôryû.kaichô.no.densetsu.(Дзюндзи.Курата).[1977.фантастика.DVDRip-AVC].[Dub]+[DVO]+[Оригинал]+[Sub].torrent без регистрации
Золото ЗОЛОТАЯ РАЗДАЧА! СКАЧАННОЕ НЕ ЗАСЧИТЫВАЕТСЯ! Золото
Дата: Зарегистрирован   [ Тип: внутренний ] Как тут cкачать?
MAGNET ссылка
MAGNET ссылка


Скачать .torrent

15 KB

Статус: проверено DHT
Скачан: торрент - 51 раз, раздача полностью - 11 раз
Размер: 1,45 GB
Оценка:  - (Голосов: 0)
Поблагодарили: 1
Поделиться ссылкой на эту раздачу с друзьями:
В контактеFacebookОдноклассникиTwitterLivejournalМой МирLiveinternet
 

 
Показать сообщения:    


Вы не можете начинать темы
Вы не можете отвечать на сообщения
Вы не можете редактировать свои сообщения
Вы не можете удалять свои сообщения
Вы не можете голосовать в опросах
Вы не можете прикреплять файлы к сообщениям
Вы можете скачивать файлы