Loading...
Error

Скачать Пепел / Popioły / Popioly / The Ashes (Анджей Вайда) [1965, драма, исторический, военный, экранизация, HDTVRip-AVC] [Dub]+[MVO]+[Оригинал]+[Sub]x2 торрент без регистрации

 
Статистика раздачи
Размер:  4,34 GB   |    Скачан:  61 раз
Сидов:  1  [  0 KB/s  ]  
 
Автор Сообщение

Marsianka

[] 



Информация о фильме
Название: Пепел
Оригинальное название: Popioły
Страна: Польша
Студия: Творческое объединение «Ритм»
Жанр: драма, исторический, военный, экранизация
Год выпуска: 1965
Продолжительность: 03:45:54

Режиссер: Анджей Вайда

В ролях: Даниэль Ольбрыхский, Беата Тышкевич, Пола Ракса, Богуслав Керц, Пётр Высоцкий, Владислав Ханьча, Ян Свидерский, Ян Кёхер, Збигнев Саван, Юзеф Дуряш, Збигнев Юзефович, Януш Закженьский, Юзеф Налберчак, Станислав Зачик, Зофья Сареток, Ян Новицкий, Эдмунд Феттинг, Ядвига Анджеевска, Барбара Вжесиньска, Тадеуш Ордейг, Ежи Пшибыльский, Адам Мулярчик, Станислав Микульский, Бронислав Межеевский, Рышард Петруский, Януш Сыкутера, Адам Круликевич, Томаш Заливский, Анджей Козак, Мирослав Облоньский, Анджей Еджеевский, Кшиштоф Литвин, Аркадиуш Базак, Ежи Прач, З. Халка, Дамьян Даменцкий, Рышард Барыч, Рышард Филипский, Богуслав Сохнацкий, Юзеф Моргала, Януш Коморовский, Роман Сыкала, Ирена Малкевич, Зыгмунт Каминьский, Станислав Марьян Каминьский, Ежи Качмарек, Михал Шевчик, Антони Левек, Ванда Якубиньска, Адам Даневич, Алисья Бонюшко, Бобби Маринежов, Ежи Козловский, Ежи Зыгмунт Новак, Марек Перепечко, Стефан Шмидт, Францишек Тжеця, Мечислав Васковский, Марьян Войтчак, Густав Луткевич, Изабелла Ольшевска, Ива Млодницка, Эва Улясиньска, Эдвард Радульский

Описание: Экранизация одноименного романа Стефана Жеромского.
Действие фильма происходит в период после третьего раздела Речи Посполитой (1795 г.) между Пруссией, Австрией, Россией и походом Наполеона на Москву 1812 года. Некогда сильное государство перестает существовать как таковое. Связывая с Бонапартом свои надежды на освобождение и объединение родной земли, многие поляки вступают в ряды французской армии, пройдя под наполеоновскими знаменами долгий путь. Однако, вся их безоглядная самоотверженность и воинская доблесть не смогут добыть свободу Польше. После пожарищ европейских войн останется лишь пепел несбывшихся надежд.



Фильм дублирован на киностудии имени Максима Горького в 1967 году
Режиссёр дубляжа: А. В. Золотницкий
Звукооператор: З. Карлюченко
Русский текст: Р. Гришаев
Редактор: П. Павлов
Роли озвучивали: Рудольф Панков (Рафал Ольбромский), Виктор Комиссаров (Кшиштоф Цедро), Николай Александрович (князь Ян Гинтулт), Наталья Фатеева (княжна Эльжбета), Роза Макагонова (Гелена де Вит) и другие.

Награды: Золотая пальмовая ветвь Каннского кинофестиваля 1966-го года.

Файл
Качество: HDTVRip-AVC
Контейнер: MKV
Видеокодек: H264
Аудиокодек: AC3

Видео: 1024x432 (2,40:1), 25 fps, 2173 kbps, 0.196 bit/pixel
Семпл
Перевод 1: Дублированный (со вставками многоголосого)
Перевод 2: Профессиональный (многоголосый закадровый)
Cубтитры 1: польские (форсированные, вшитые) - на французскую и испанскую речь
Cубтитры 2: русские (форсированные, отключаемые)
Оригинальная аудиодорожка: польский

Аудио 1: 48 kHz, AC3 Dolby Digital, 2 ch, 192 kbps - дубляж
Аудио 2: 48 kHz, AC3 Dolby Digital, 2 ch, 192 kbps - многоголосый
Аудио 3: 48 kHz, AC3 Dolby Digital, 2 ch, 192 kbps - польский
Формат субтитров: softsub (SRT)

Общее
Уникальный идентификатор : 226506611360752811484809545924765246009 (0xAA679627A01A1687BAB186E568EF6239)
Полное имя : Пепел [Popioly] (1965) [DUB +MVO +PL] HDTVRip.mkv
Формат : Matroska
Версия формата : Version 2
Размер файла : 4,34 Гбайт
Продолжительность : 3 ч. 45 м.
Общий поток : 2751 Кбит/сек
Дата кодирования : UTC 2015-10-10 09:44:38
Программа кодирования : mkvmerge v2.9.8 ('C'est le bon') built on Aug 13 2009 12:49:06
Библиотека кодирования : libebml v0.7.7 + libmatroska v0.8.1

Видео
Идентификатор : 1
Формат : AVC
Формат/Информация : Advanced Video Codec
Профиль формата : High@L4.1
Параметр CABAC формата : Да
Параметр ReFrames формата : 16 кадров
Идентификатор кодека : V_MPEG4/ISO/AVC
Продолжительность : 3 ч. 45 м.
Битрейт : 2173 Кбит/сек
Ширина : 1024 пикселя
Высота : 432 пикселя
Соотношение сторон : 2,40:1
Режим частоты кадров : Постоянный
Частота кадров : 25,000 кадров/сек
Цветовое пространство : YUV
Субдискретизация насыщенности : 4:2:0
Битовая глубина : 8 бит
Тип развёртки : Прогрессивная
Бит/(Пиксели*Кадры) : 0.196
Размер потока : 3,35 Гбайт (77%)
Библиотека кодирования : x264 core 146 r2538 121396c
Настройки программы : cabac=1 / ref=16 / deblock=1:-3:-2 / analyse=0x3:0x133 / me=umh / subme=10 / psy=1 / psy_rd=1.05:0.10 / mixed_ref=1 / me_range=32 / chroma_me=1 / trellis=2 / 8x8dct=1 / cqm=0 / deadzone=21,11 / fast_pskip=0 / chroma_qp_offset=-3 / threads=6 / lookahead_threads=1 / sliced_threads=0 / nr=0 / decimate=0 / interlaced=0 / bluray_compat=0 / constrained_intra=0 / bframes=14 / b_pyramid=2 / b_adapt=2 / b_bias=0 / direct=3 / weightb=1 / open_gop=0 / weightp=2 / keyint=250 / keyint_min=25 / scenecut=40 / intra_refresh=0 / rc_lookahead=60 / rc=2pass / mbtree=1 / bitrate=2173 / ratetol=1.0 / qcomp=0.65 / qpmin=0 / qpmax=69 / qpstep=4 / cplxblur=20.0 / qblur=0.5 / vbv_maxrate=62500 / vbv_bufsize=78125 / nal_hrd=none / filler=0 / ip_ratio=1.40 / aq=1:1.00
Язык : English
Default : Нет
Forced : Нет

Аудио #1
Идентификатор : 2
Формат : AC-3
Формат/Информация : Audio Coding 3
Расширение режима : CM (complete main)
Параметр Endianness формата : Big
Идентификатор кодека : A_AC3
Продолжительность : 3 ч. 45 м.
Вид битрейта : Постоянный
Битрейт : 192 Кбит/сек
Каналы : 2 канала
Расположение каналов : Front: L R
Частота : 48,0 КГц
Битовая глубина : 16 бит
Метод сжатия : С потерями
Задержка видео : 100 мс.
Размер потока : 310 Мбайт (7%)
Заголовок : Дубляж киностудии имени М. Горького, 1967 г.
Язык : Russian
Default : Да
Forced : Нет

Аудио #2
Идентификатор : 3
Формат : AC-3
Формат/Информация : Audio Coding 3
Расширение режима : CM (complete main)
Параметр Endianness формата : Big
Идентификатор кодека : A_AC3
Продолжительность : 3 ч. 45 м.
Вид битрейта : Постоянный
Битрейт : 192 Кбит/сек
Каналы : 2 канала
Расположение каналов : Front: L R
Частота : 48,0 КГц
Битовая глубина : 16 бит
Метод сжатия : С потерями
Размер потока : 310 Мбайт (7%)
Заголовок : Многоголосый закадровый
Язык : Russian
Default : Нет
Forced : Нет

Аудио #3
Идентификатор : 4
Формат : AC-3
Формат/Информация : Audio Coding 3
Расширение режима : CM (complete main)
Параметр Endianness формата : Big
Идентификатор кодека : A_AC3
Продолжительность : 3 ч. 45 м.
Вид битрейта : Постоянный
Битрейт : 192 Кбит/сек
Каналы : 2 канала
Расположение каналов : Front: L R
Частота : 48,0 КГц
Битовая глубина : 16 бит
Метод сжатия : С потерями
Размер потока : 310 Мбайт (7%)
Язык : Polish
Default : Нет
Forced : Нет

Текст
Идентификатор : 5
Формат : UTF-8
Идентификатор кодека : S_TEXT/UTF8
Идентификатор кодека/Информация : UTF-8 Plain Text
Заголовок : Rus_forced
Язык : Russian
Default : Да
Forced : Нет



Скачать Пепел.Popioły.Popioly.The.Ashes.(Анджей.Вайда).[1965.драма.исторический.военный.экранизация.HDTVRip-AVC].[Dub]+[MVO]+[Оригинал]+[Sub]x2.torrent без регистрации
Золото ЗОЛОТАЯ РАЗДАЧА! СКАЧАННОЕ НЕ ЗАСЧИТЫВАЕТСЯ! Золото
Дата: Зарегистрирован   [ Тип: внутренний ] Как тут cкачать?
MAGNET ссылка
MAGNET ссылка


Скачать .torrent

12 KB

Статус: проверено DHT
Скачан: торрент - 61 раз, раздача полностью - 12 раз
Размер: 4,34 GB
Оценка:  5 (Голосов: 1)
Поблагодарили: 2
Поделиться ссылкой на эту раздачу с друзьями:
В контактеFacebookОдноклассникиTwitterLivejournalМой МирLiveinternet
 

 
Показать сообщения:    


Вы не можете начинать темы
Вы не можете отвечать на сообщения
Вы не можете редактировать свои сообщения
Вы не можете удалять свои сообщения
Вы не можете голосовать в опросах
Вы не можете прикреплять файлы к сообщениям
Вы можете скачивать файлы