Loading...
Error

Скачать Криминальные любовники / Les amants criminels (Франсуа Озон) [1999, триллер, драма, DVDRip-AVC] [MVO]+[Sub]x2 торрент без регистрации

 
Статистика раздачи
Размер:  1,43 GB   |    Скачан:  45 раз
Сидов:  1  [  0 KB/s  ]  
 
Автор Сообщение

Marsianka

[] 

Информация о фильме
Название: Криминальные любовники
Оригинальное название: Les amants criminels
Год выхода: 1999
Жанр: триллер, драма
Режиссер: Франсуа Озон
В ролях: Наташа Ренье, Жереми Ренье, Мики Манойлович, Салим Кешьюш, Ясмин Бельмади, Бернар Мом, Жан-Луи Дебар, Катрин Вьерн, Мариель Кубайон, Оливье Папо

О фильме:
Симпатичные ребята Алиса и Люк убивают приятеля и закапывают труп в лесу. Но им не везет. Их замечает житель лесного домика, и он не прочь с ними поразвлечься. Лесник закрывает узников в подвале, где любовники, к своему `удовольствию`, находят труп недавно похороненного приятеля. И калейдоскоп развлечений начинается...


Страна: Франция
Студия: Fidélité Productions, Arte France Cinéma, StudioCanal
Продолжительность: 01:31:58.016
Перевод: Профессиональный (многоголосый, закадровый) R5

Файл
Кодек: h.264
Качество: DVDRip-AVC
Видео: 704x544 (1.85:1) @ 1006x544 (анаморф), 25.000 fps, AVC, ~1776 Kbps, 0.185 bits/pixel

Русский, 48.0 KHz, AC3, 2 ch, 224 Kbps*
Французский, 48.0 KHz, AC3, 2 ch, 224 Kbps
*получена наложением чистых голосов переводчиков
Субтитры:
Английские, VobSub
Русские, SRT(UTF-8)
General
Unique ID : 243230104615070288402464202652857459161 (0xB6FC6A080EEED844AAA41C332064E1D9)
Complete name : I:FilmsKriminalniye_lubovniki.1999.DVDRip-AVC.mkv
Format : Matroska
Format version : Version 4 / Version 2
File size : 1.43 GiB
Duration : 1h 31mn
Overall bit rate : 2 226 Kbps
Encoded date : UTC 2015-11-11 20:07:28
Writing application : mkvmerge v8.5.2 ('Crosses') 64bit
Writing library : libebml v1.3.3 + libmatroska v1.4.4
DURATION : 01:29:42.638000000
NUMBER_OF_FRAMES : 407
NUMBER_OF_BYTES : 23397
_STATISTICS_WRITING_APP : mkvmerge v8.5.2 ('Crosses') 64bit
_STATISTICS_WRITING_DATE_UTC : 2015-11-11 20:07:28
_STATISTICS_TAGS : BPS DURATION NUMBER_OF_FRAMES NUMBER_OF_BYTES

Video
ID : 1
Format : AVC
Format/Info : Advanced Video Codec
Format profile : High@L4.1
Format settings, CABAC : Yes
Format settings, ReFrames : 11 frames
Codec ID : V_MPEG4/ISO/AVC
Duration : 1h 31mn
Bit rate : 1 776 Kbps
Width : 704 pixels
Height : 544 pixels
Display aspect ratio : 1.85:1
Original display aspect ratio : 1.85:1
Frame rate mode : Constant
Frame rate : 25.000 fps
Color space : YUV
Chroma subsampling : 4:2:0
Bit depth : 8 bits
Scan type : Progressive
Bits/(Pixel*Frame) : 0.185
Stream size : 1.11 GiB (78%)
Writing library : x264 core 146 r2538 121396c
Encoding settings : cabac=1 / ref=11 / deblock=1:0:0 / analyse=0x3:0x133 / me=umh / subme=11 / psy=1 / psy_rd=1.10:0.15 / mixed_ref=1 / me_range=48 / chroma_me=1 / trellis=2 / 8x8dct=1 / cqm=0 / deadzone=21,11 / fast_pskip=0 / chroma_qp_offset=-3 / threads=8 / lookahead_threads=2 / sliced_threads=0 / nr=0 / decimate=0 / interlaced=0 / bluray_compat=0 / constrained_intra=0 / bframes=10 / b_pyramid=2 / b_adapt=2 / b_bias=0 / direct=3 / weightb=1 / open_gop=0 / weightp=2 / keyint=250 / keyint_min=25 / scenecut=40 / intra_refresh=0 / rc_lookahead=60 / rc=2pass / mbtree=0 / bitrate=1776 / ratetol=1.0 / qcomp=0.60 / qpmin=0 / qpmax=69 / qpstep=4 / cplxblur=20.0 / qblur=0.5 / vbv_maxrate=40000 / vbv_bufsize=50000 / nal_hrd=none / filler=0 / ip_ratio=1.40 / pb_ratio=1.30 / aq=1:1.00
Default : No
Forced : No
Color range : Limited
Matrix coefficients : BT.601

Audio #1
ID : 2
Format : AC-3
Format/Info : Audio Coding 3
Mode extension : CM (complete main)
Format settings, Endianness : Big
Codec ID : A_AC3
Duration : 1h 31mn
Bit rate mode : Constant
Bit rate : 224 Kbps
Channel(s) : 2 channels
Channel positions : Front: L R
Sampling rate : 48.0 KHz
Compression mode : Lossy
Stream size : 147 MiB (10%)
Language : Russian
Default : Yes
Forced : No

Audio #2
ID : 3
Format : AC-3
Format/Info : Audio Coding 3
Mode extension : CM (complete main)
Format settings, Endianness : Big
Codec ID : A_AC3
Duration : 1h 31mn
Bit rate mode : Constant
Bit rate : 224 Kbps
Channel(s) : 2 channels
Channel positions : Front: L R
Sampling rate : 48.0 KHz
Compression mode : Lossy
Stream size : 147 MiB (10%)
Language : French
Default : No
Forced : No

Text #1
ID : 4
Format : VobSub
Muxing mode : zlib
Codec ID : S_VOBSUB
Codec ID/Info : Picture based subtitle format used on DVDs
Language : English
Default : No
Forced : No

Text #2
ID : 5
Format : UTF-8
Codec ID : S_TEXT/UTF8
Codec ID/Info : UTF-8 Plain Text
Language : Russian
Default : No
Forced : No

Menu
00:00:00.000 : en:Chapter 01
00:00:14.560 : en:Chapter 02
00:03:48.280 : en:Chapter 03
00:11:11.840 : en:Chapter 04
00:16:54.520 : en:Chapter 05
00:20:52.160 : en:Chapter 06
00:24:48.760 : en:Chapter 07
00:29:19.160 : en:Chapter 08
00:35:02.880 : en:Chapter 09
00:43:29.880 : en:Chapter 10
00:46:40.720 : en:Chapter 11
00:50:27.440 : en:Chapter 12
00:55:42.560 : en:Chapter 13
01:03:07.160 : en:Chapter 14
01:05:44.200 : en:Chapter 15
01:10:37.480 : en:Chapter 16
01:13:24.920 : en:Chapter 17
01:15:53.120 : en:Chapter 18
01:19:58.040 : en:Chapter 19
01:23:16.160 : en:Chapter 20
01:27:10.160 : en:Chapter 21
frame I:783 Avg QP:17.11 size: 49633
frame P:26930 Avg QP:20.13 size: 18978
frame B:110237 Avg QP:21.69 size: 6119
Исходник R2! Релиз от: Temperest



Скачать Криминальные.любовники.Les.amants.criminels.(Франсуа.Озон).[1999.триллер.драма.DVDRip-AVC].[MVO]+[Sub]x2.torrent без регистрации
Золото ЗОЛОТАЯ РАЗДАЧА! СКАЧАННОЕ НЕ ЗАСЧИТЫВАЕТСЯ! Золото
Дата: Зарегистрирован   [ Тип: внутренний ] Как тут cкачать?
MAGNET ссылка
MAGNET ссылка


Скачать .torrent

15 KB

Статус: проверено DHT
Скачан: торрент - 45 раз, раздача полностью - 51 раз
Размер: 1,43 GB
Оценка:  - (Голосов: 0)
Поблагодарили: 1
Поделиться ссылкой на эту раздачу с друзьями:
В контактеFacebookОдноклассникиTwitterLivejournalМой МирLiveinternet
 

 
Показать сообщения:    


Вы не можете начинать темы
Вы не можете отвечать на сообщения
Вы не можете редактировать свои сообщения
Вы не можете удалять свои сообщения
Вы не можете голосовать в опросах
Вы не можете прикреплять файлы к сообщениям
Вы можете скачивать файлы